Тинейджер - монстр / Teenage Monster (Жак Р. Маркетт / Jacques R. Marquette) [1958, США, ужасы, фантастика, вестерн, DVDRip] VO (den904) + Sub Rus (Свен Железнов) + Original Eng

DL-List and Torrent activity
Size:  759 MB   |    Registered:  2 years 9 months   |    Completed:  16 times
Seeders:  5  
 
   
 
 

erzsebet.org ®

Longevity:
2 years 9 months
Posts:
47596

[Quote] 

Тинейджер - монстр / Teenage Monster

Слоган: «Wild! Wanton! Weird!»
Страна: США
Жанр: ужасы, фантастика, вестерн
Год выпуска: 1958
Продолжительность: 01:05:19
Перевод: Одноголосый закадровый - den904
Субтитры: русские(Свен Железнов)
Оригинальная аудиодорожка: английский
Режиссер: Жак Р. Маркетт / Jacques R. Marquette
В ролях: Энн Гвин, Стюарт Вэйд, Глория Кастильо, Чак Кортни, Джил Перкинс, Норман Ливитт, Гейб Мурадиан, Стефен Паркер, Джим МакКалло ст., Фрэнк Дэвис ...
Описание: Жак Маркетт снял этот фильм потому что ему срочно требовался малобюджетный триллер как дополнение к фантастической ленте "Мозг с планеты Ароус". В то время в США было принято устраивать т.н. двойные сеансы, где первым шел фильм подороже, а затем картина с претензиями пожиже. Для удешевления производства Маркет сам выступил в качестве режиссера, первый и последний раз. Учитывая обстоятельства, можно было бы ожидать киношлак. Но фильм получился на удивление ровным, динамичным и драматичным. Совмещение вестерна, ужасов и тинейджер-муви в одном флаконе делает картину очень оригинальной.-- --Фильм переведен и озвучен специально для: 7букв Вестерн / группа Джесси Джеймса.
Отдельная благодарность Alassea за предоставленную русскую звуковую дорожку и субтитры.
Перевод: Свен Железнов.
Закадровый текст: den904.--Teenage Monster_(1958)_DVDRip_Sample_.avi--Качество видео: DVDRip
Формат видео: AVI
Видео: 544x384 (1.42:1), 29.970 fps, XviD build 47 ~1356 kbps avg, 0.22 bit/pixel
Аудио 1: 48 kHz, MPEG Layer 3, 2 ch, ~128.00 kbps avg, Русский
Аудио 2: 48 kHz, MPEG Layer 3, 2 ch, ~128.00 kbps avg, Английский --- [Отдельно]
Формат субтитров: softsub (SRT)

AviInfo

File: Teenage Monster_(1958)_DVDRip_.avi
Title: Teenage Monster (1958)
Author: Jacques R. Marquette
Genre: Horror, Sci-Fi, Western
Category: Movie
Comment: VO (den904)
FileSize: 699.09 Mb ( 733 043 912 bytes )
Play length: 01:05:19.582 (117470 frames)
Subtitles: RUS_(Sven Zheleznov)_ (SubRip format)
Video: 544x384 (1.42:1), 29.970 fps, XviD build 47 ~1356 kbps avg, 0.22 bit/pixel
Audio: 48 kHz, MPEG Layer 3, 2 ch, ~128.00 kbps avg

MediaInfo

General
Complete name : I:\111\z_D_Disk\Teenage Monster_(1958)_DVDRip_\Teenage Monster_(1958)_DVDRip_.avi
Format : AVI
Format/Info : Audio Video Interleave
File size : 699 MiB
Duration : 1 h 5 min
Overall bit rate : 1 496 kb/s
Movie name : Teenage Monster (1958)
Director : Jacques R. Marquette
Genre : Horror, Sci-Fi, Western
Original source form/Name : Movie
Comment : VO (den904)
Video
ID : 0
Format : MPEG-4 Visual
Format profile : Advanced [email protected]
Format settings, BVOP : 1
Format settings, QPel : No
Format settings, GMC : No warppoints
Format settings, Matrix : Default (MPEG)
Codec ID : XVID
Codec ID/Hint : XviD
Duration : 1 h 5 min
Bit rate : 1 357 kb/s
Width : 544 pixels
Height : 384 pixels
Display aspect ratio : 1.417
Frame rate : 29.970 (30000/1001) FPS
Color space : YUV
Chroma subsampling : 4:2:0
Bit depth : 8 bits
Scan type : Progressive
Compression mode : Lossy
Bits/(Pixel*Frame) : 0.217
Stream size : 634 MiB (91%)
Writing library : XviD 1.2.0.dev47 (UTC 2006-11-01)
Audio
ID : 1
Format : MPEG Audio
Format version : Version 1
Format profile : Layer 3
Codec ID : 55
Codec ID/Hint : MP3
Duration : 1 h 5 min
Bit rate mode : Constant
Bit rate : 128 kb/s
Channel(s) : 2 channels
Sampling rate : 48.0 kHz
Compression mode : Lossy
Stream size : 59.8 MiB (9%)
Alignment : Aligned on interleaves
Interleave, duration : 33 ms (1.00 video frame)
Interleave, preload duratio : 504 ms

If your ratio falls below 0.3, you will not be able to download Torrents! More about the rating.

[erzsebet.pl].t582.torrent
Torrent: Registered   [ 2017-12-02 16:56 ]

Download .torrent

Download

15 KB

Status: checked
Completed: 16 times
Size: 759 MB
terms.php

#1

02-Dec-2017 16:54

[Profile]  [PM] 
Display posts:    

You cannot post new topics in this forum
You cannot reply to topics in this forum
You cannot edit your posts in this forum
You cannot delete your posts in this forum
You cannot vote in polls in this forum
You cannot attach files in this forum
You can download files in this forum
User agreement
For copyright holders
Advertise on this site

Скачайте на халяву через торрент на трекере erzsebet.pl

!ATTENTION!
The site does not give electronic versions of products, and is engaged only in a collecting and cataloguing of the references sent and published at a forum by our readers. If you are the legal owner of any submitted material and do not wish that the reference to it was in our catalogue, contact us and we shall immediately remove her. Files for an exchange on tracker are given by users of a site, and the administration does not bear the responsibility for their maintenance. The request to not fill in the files protected by copyrights, and also files of the illegal maintenance!