Тайная жизнь моей матери / My Mother's Secret Life (Роберт Марковиц / Robert Markowitz) [1984, США, Драма, VHSRip] AVO (Андрей Дольский) + Original Eng

DL-List and Torrent activity
Size:  1.5 GB   |    Registered:  2 years 9 months   |    Completed:  16 times
Seeders:  4   Leechers:  1   Show peers in full details
 
   
 
 

erzsebet.org ®

Longevity:
2 years 9 months
Posts:
47596

[Quote] 

Тайная жизнь моей матери / My Mother's Secret Life
Страна: США
Жанр: Драма
Год выпуска: 1984
Продолжительность: 01:34:24
Перевод: Авторский (одноголосый закадровый) Андрей Дольский
Субтитры: нет
Оригинальная аудиодорожка: английский
Режиссер: Роберт Марковиц / Robert Markowitz
В ролях: Лони Андерсон, Пол Сорвино, Аманда Уайсс, Джеймс Сьюториус, Сэнди МакПик, Дуглас Дирксон, Грейс Забриски, Стенли Кэмел, Гранд Л. Буш, Francine Lembi
Описание: Девочка росла в разлуке со своей родной матерью, но когда выросла — узнала как живет ее мама. Оказывается мама работает проституткой и считается элитной и высокооплачиваемой «сотрудницей» этого нелегкого и ужасного «бизнеса»…
Доп. информация: Дорожка с А. Дольским синхронизирована и наложена ale_x2008 при помощи Sony Vegas и VirtualDubMod.
За оцифрованную с VHS дорожку благодарим - Raptorio Rio
Релиз
Сэмпл: https://yadi.sk/i/VmiCQz4R3PyNuu
Качество видео: VHSRip
Формат видео: AVI
Видео: XviD build 73, 640x480 (1.33:1), 23.976 fps, 1872 kbps avg, 0.25 bit/pixel
Аудио: AC3 Dolby Digital, 48000Hz 2/0 (L,R) ch (mono), 192.00 kbps avg
Аудио 2: AC3 Dolby Digital, 48000Hz 2/0 (L,R) ch, 192.00 kbps avg

MediaInfo

Тайная жизнь моей матери - My Mother's Secret Life [by ale_x2008].avi
Format : AVI
Format/Info : Audio Video Interleave
File size : 1.50 GiB
Duration : 1 h 34 min
Overall bit rate : 2 271 kb/s
Movie name : Тайная жизнь моей матери - My Mother's Secret Life [by ale_x2008]
Director : by ale_x2008
Writing application : VirtualDubMod 1.5.10.2 (build 2540/release)
Copyright : Edich2
Comment : erzsebet.org
Video
ID : 0
Format : MPEG-4 Visual
Format profile : Advanced [email protected]
Format settings, BVOP : 2
Format settings, QPel : No
Format settings, GMC : No warppoints
Format settings, Matrix : Custom
Codec ID : XVID
Codec ID/Hint : XviD
Duration : 1 h 34 min
Bit rate : 1 873 kb/s
Width : 640 pixels
Height : 480 pixels
Display aspect ratio : 4:3
Frame rate : 23.976 (24000/1001) FPS
Color space : YUV
Chroma subsampling : 4:2:0
Bit depth : 8 bits
Scan type : Progressive
Compression mode : Lossy
Bits/(Pixel*Frame) : 0.254
Stream size : 1.23 GiB (82%)
Writing library : XviD 73
Audio #1
ID : 1
Format : AC-3
Format/Info : Audio Coding 3
Format settings, Endianness : Big
Codec ID : 2000
Duration : 1 h 34 min
Bit rate mode : Constant
Bit rate : 192 kb/s
Channel(s) : 2 channels
Channel positions : Front: L R
Sampling rate : 48.0 kHz
Frame rate : 31.250 FPS (1536 spf)
Bit depth : 16 bits
Compression mode : Lossy
Stream size : 130 MiB (8%)
Alignment : Split accross interleaves
Interleave, duration : 42 ms (1.00 video frame)
Interleave, preload duratio : 500 ms
Service kind : Complete Main
Audio #2
ID : 2
Format : AC-3
Format/Info : Audio Coding 3
Format settings, Endianness : Big
Codec ID : 2000
Duration : 1 h 34 min
Bit rate mode : Constant
Bit rate : 192 kb/s
Channel(s) : 2 channels
Channel positions : Front: L R
Sampling rate : 48.0 kHz
Frame rate : 31.250 FPS (1536 spf)
Bit depth : 16 bits
Compression mode : Lossy
Stream size : 130 MiB (8%)
Alignment : Split accross interleaves
Interleave, duration : 42 ms (1.00 video frame)
Interleave, preload duratio : 500 ms
Service kind : Complete Main

Скриншоты


If your ratio falls below 0.3, you will not be able to download Torrents! More about the rating.

[erzsebet.pl].t583.torrent
Torrent: Registered   [ 2017-12-02 16:56 ]

Download .torrent

Download

15 KB

Status: checked
Completed: 16 times
Size: 1.5 GB
terms.php

#1

02-Dec-2017 16:54

[Profile]  [PM] 
Display posts:    

You cannot post new topics in this forum
You cannot reply to topics in this forum
You cannot edit your posts in this forum
You cannot delete your posts in this forum
You cannot vote in polls in this forum
You cannot attach files in this forum
You can download files in this forum
User agreement
For copyright holders
Advertise on this site

Скачайте на халяву через торрент на трекере erzsebet.pl

!ATTENTION!
The site does not give electronic versions of products, and is engaged only in a collecting and cataloguing of the references sent and published at a forum by our readers. If you are the legal owner of any submitted material and do not wish that the reference to it was in our catalogue, contact us and we shall immediately remove her. Files for an exchange on tracker are given by users of a site, and the administration does not bear the responsibility for their maintenance. The request to not fill in the files protected by copyrights, and also files of the illegal maintenance!