Аморальные истории / Contes immoraux / Immoral Tales (Валериан Боровчик / Walerian Borowczyk) [1974, Франция, Драма, эротика, HDRip-AVC] [Полная оригинальная версия] DVO + Sub Eng + Original Fre

DL-List and Torrent activity
Size:  2.06 GB   |    Registered:  2 years 9 months   |    Completed:  16 times
Seeders:  30  
 
   
 
 

erzsebet.org ®

Longevity:
2 years 9 months
Posts:
47596

[Quote] 

Аморальные истории / Contes immoraux / Immoral Tales [Полная оригинальная версия]
Жанр: Драма, эротика
Страна: Франция
Студия: Argos Films, Syn-Frank Enterprises
Год выпуска: 1974
Продолжительность: 02:05:26
Перевод: Профессиональный (двухголосый закадровый)
Субтитры: английские
Оригинальная аудиодорожка: французский
Режиссер: Валериан Боровчик / Walerian Borowczyk
В ролях:
Лиз Данверс / Lise Danvers ... Julie
Фабрис Лукини / Fabrice Luchini ... André
Шарлотт Александра / Charlotte Alexandra ... Thérèse
Палома Пикассо / Paloma Picasso ... Elisabeth Bathory
Паскаль Кристоф / Pascale Christophe ... Istvan
Флоренс Беллами / Florence Bellamy ... Lucrezia Borgia
Якопо Бериници / Jacopo Berinizi ... Pope Alexander VI
Лоренцо Бериници / Lorenzo Berinizi ... Caesar Borgia
Филипп Дебоёф / Philippe Desboeuf ... Friar Hyeronimus Savonarola
Николь Карен / Nicole Karen ...
Томаш Хневса / Tomas Hnevsa
Матью Риволье / Mathieu Rivolier ...
Роберт Капиа / Robert Capia ...
Жерар Черка / Gerard Tcherka ...
Кьелль Густавссон / Kjell Gustavsson ...
Мари Форса / Marie Forså ... Silver Blonde in Close-Up girl
Описание: Экранизация произведения Андре Пьейра де Мандиарга (André Pieyre de Mandiargues).
Фильм «Аморальные истории» состоит из пяти (в первоначальной оригинальной версии) эпизодов, объединяющих настоящее и прошлое, эротику и извращённую сексуальность. Переплетая жестокость и изящество, садизм и чувственность, Боровчик строит каждую часть исходя из дуалистического противоборства души и тела.
Эти эпизоды, представляющие собой новеллы, перенесённые на экран - как бы экспонаты музея эротических забав. Любовные игры современных юноши и девушки - новелла «Прилив» (La Marée), затем экскурсы в далекую историю: девушка, воспитанная в религии, мечтающая о любви и удовлетворяющая себя - «Тереза – философ» (Thérèse Philosophe); венгерская аристократка, купающаяся в бассейне в крови убитых по ее приказу девушек в надежде самой сохранить молодость – «Эржебет Батори» (Erzsébet Báthory); развратная Лукреция Борджиа - «Лукреция Борджиа» (Lucrezia Borgia), любовница родного отца и брата. О пятом эпизоде - «Чудовище / Зверь» (La bête), в котором действие показано, как сон разомлевшей от томных желаний девушки, - будет упомянуто ниже.
Создатель фильма, Валериан Боровчик, как один из наиболее претенциозных европейских режиссеров, безусловно пытался создать картину, достойную не только фестивалей эротического кино. И надо отдать ему должное, в отдельных эпизодах чувствуется высокий класс. Некоторые кадры стали просто классическими в рамках эротического жанра. Но всё же режиссёр не смог выйти за рамки этого жанра, ему не удалось в этом фильме в полной мере достичь глубины драматического накала, подняться на вершину искусства.
В этой картине тесно переплетены как эротическое начало и сексуальная чувственность, так и извращённая мораль и нравственное разложение, создавая, тем самым, конфликт между прекрасным и низменным. Режиссёр бросает вызов ханжам и пуританам, демонстрируя их похоть и пороки, снимая с них ореол высоконравственной чистоты, прикрываясь которой прелюбодеи-развратники всегда пытались скрыть своё истинное греховное лицо.
Фильм не рекомендуется смотреть людям с чувствительной, неуравновешенной психикой и в возрасте до 18 лет.
Дополнительная информация: Релиз: ФЕНИКС
Исходник найден в сети.
Автор рипа: pmv
Большое спасибо за:
- профессиональную озвучку, взятую с раздачи http://erzsebet.org/forum/viewtopic.php?t=4859583hvostenota, alex7691, smit009
- работу со звуком - pmv
* Первоначальная версия, снятая в 1974 году, состояла из пяти, а не четырех эпизодов. Боровчик снял эпизод «Чудовище / Зверь» (La bête) по произведению «Подлинная история Жеводанского зверя» (La véritable historie de la bête du Gévaudan), который был по цензурным соображениям вырезана. Позднее, в 1975 году на основе его был создал полнометражный фильм под тем же названием - «Зверь» (La bête). В 2010 году во французском архиве был найден чудом сохранившийся негатив оригинального эпизода «Подлинная история Жеводанского зверя».
* В данной раздаче представлена полная оригинальная версия в первоначальном варианте, продолжительностью 02:05:26. Она включает все 5 эпизодов и на 22 минуты продолжительнее по времени, в отличие от представленных на Рутрекере неполных версий, содержащих только 4 эпизода.
* Текст читали: Александр Клюквин, Марина Бакина
IMDb = 5,8/10 (2739) - http://www.imdb.com/title/tt0071359/
Кинопоиск = 5.852 (785) - https://www.kinopoisk.ru/film/amoralnye-istorii-1973-84344/
ВНИМАНИЕ!!! РИП ФОРМАТА mkv (кодек H.264) ВОСПРОИЗВОДИТСЯ НЕ НА ВСЕХ БЫТОВЫХ ВИДЕОПЛЕЕРАХ!!!
ПРОСЬБА к СКАЧАВШИМ. НЕ УХОДИТЕ С РАЗДАЧИ, ПОМОГИТЕ ДРУГИМ СКАЧАТЬ!!!
Качество видео: HDRip-AVC
Формат видео: MKV
Видео: AVC (H264), 1152x648 (16:9), 23.976 fps, 1940 kbps, 0.108 Bits/Pixel
Аудио #1: AC3, 48 KHz, stereo (2 ch), 192 kbps - русский
Аудио #2: AC3, 48 KHz, stereo (2 ch), 224 kbps - французский

MediaInfo

General
Unique ID : 241170960859438570027025113119164184936 (0xB56FD667F210A876BF9DB3D7F8C7B968)
Complete name : D:\torrents\Contes Immoraux (1974, rus_MVO+fre+eng_sub).mkv
Format : Matroska
Format version : Version 4 / Version 2
File size : 2.06 GiB
Duration : 2 h 5 min
Overall bit rate : 2 357 kb/s
Encoded date : UTC 2017-11-21 16:18:03
Writing application : mkvmerge v18.0.0 ('Apricity') 64-bit
Writing library : libebml v1.3.5 + libmatroska v1.4.8
Video
ID : 1
Format : AVC
Format/Info : Advanced Video Codec
Format profile : [email protected]
Format settings, CABAC : Yes
Format settings, ReFrames : 11 frames
Codec ID : V_MPEG4/ISO/AVC
Duration : 2 h 5 min
Bit rate : 1 940 kb/s
Width : 1 152 pixels
Height : 648 pixels
Display aspect ratio : 16:9
Frame rate mode : Constant
Frame rate : 23.976 (23976/1000) FPS
Original frame rate : 23.976 (24000/1001) FPS
Color space : YUV
Chroma subsampling : 4:2:0
Bit depth : 8 bits
Scan type : Progressive
Bits/(Pixel*Frame) : 0.108
Stream size : 1.70 GiB (82%)
Writing library : x264 core 146 r2538 121396c
Encoding settings : cabac=1 / ref=11 / deblock=1:0:0 / analyse=0x3:0x133 / me=umh / subme=10 / psy=1 / psy_rd=1.00:0.00 / mixed_ref=1 / me_range=24 / chroma_me=1 / trellis=2 / 8x8dct=1 / cqm=0 / deadzone=21,11 / fast_pskip=1 / chroma_qp_offset=-2 / threads=66 / lookahead_threads=5 / sliced_threads=0 / nr=0 / decimate=1 / interlaced=0 / bluray_compat=0 / constrained_intra=0 / bframes=8 / b_pyramid=2 / b_adapt=2 / b_bias=0 / direct=3 / weightb=1 / open_gop=0 / weightp=2 / keyint=250 / keyint_min=23 / scenecut=40 / intra_refresh=0 / rc_lookahead=60 / rc=2pass / mbtree=1 / bitrate=1940 / ratetol=1.0 / qcomp=0.60 / qpmin=0 / qpmax=69 / qpstep=4 / cplxblur=20.0 / qblur=0.5 / ip_ratio=1.40 / aq=1:1.00
Language : French
Default : Yes
Forced : No
Audio #1
ID : 2
Format : AC-3
Format/Info : Audio Coding 3
Mode extension : CM (complete main)
Format settings, Endianness : Big
Codec ID : A_AC3
Duration : 2 h 5 min
Bit rate mode : Constant
Bit rate : 192 kb/s
Channel(s) : 2 channels
Channel positions : Front: L R
Sampling rate : 48.0 kHz
Frame rate : 31.250 FPS (1536 spf)
Bit depth : 16 bits
Compression mode : Lossy
Stream size : 172 MiB (8%)
Language : Russian
Default : Yes
Forced : No
Audio #2
ID : 3
Format : AC-3
Format/Info : Audio Coding 3
Mode extension : CM (complete main)
Format settings, Endianness : Big
Codec ID : A_AC3
Duration : 2 h 5 min
Bit rate mode : Constant
Bit rate : 224 kb/s
Channel(s) : 2 channels
Channel positions : Front: L R
Sampling rate : 48.0 kHz
Frame rate : 31.250 FPS (1536 spf)
Bit depth : 16 bits
Compression mode : Lossy
Stream size : 201 MiB (10%)
Language : French
Default : No
Forced : No
Text #1
ID : 4
Format : UTF-8
Codec ID : S_TEXT/UTF8
Codec ID/Info : UTF-8 Plain Text
Duration : 19 s 353 ms
Bit rate : 62 b/s
Count of elements : 4
Stream size : 150 Bytes (0%)
Language : Russian
Default : Yes
Forced : Yes
Text #2
ID : 5
Format : UTF-8
Codec ID : S_TEXT/UTF8
Codec ID/Info : UTF-8 Plain Text
Duration : 2 h 5 min
Bit rate : 11 b/s
Count of elements : 296
Stream size : 10.3 KiB (0%)
Language : English
Default : No
Forced : No

Скриншот c названием фильма

МОИ РАЗДАЧИ НА РУТРЕКЕРЕ: http://erzsebet.org/forum/tracker.php?rid=27390064

If your ratio falls below 0.3, you will not be able to download Torrents! More about the rating.

[erzsebet.pl].t584.torrent
Torrent: Registered   [ 2017-12-02 16:56 ]

Download .torrent

Download

11 KB

Status: checked
Completed: 16 times
Size: 2.06 GB
terms.php

#1

02-Dec-2017 16:54

[Profile]  [PM] 
Display posts:    

You cannot post new topics in this forum
You cannot reply to topics in this forum
You cannot edit your posts in this forum
You cannot delete your posts in this forum
You cannot vote in polls in this forum
You cannot attach files in this forum
You can download files in this forum
User agreement
For copyright holders
Advertise on this site

Скачайте на халяву через торрент на трекере erzsebet.pl

!ATTENTION!
The site does not give electronic versions of products, and is engaged only in a collecting and cataloguing of the references sent and published at a forum by our readers. If you are the legal owner of any submitted material and do not wish that the reference to it was in our catalogue, contact us and we shall immediately remove her. Files for an exchange on tracker are given by users of a site, and the administration does not bear the responsibility for their maintenance. The request to not fill in the files protected by copyrights, and also files of the illegal maintenance!