Ангел тьмы / Мрачный ангел / Тёмный ангел / Чёрный ангел / Я пришёл с миром / Dark Angel / I Come in Peace (Крэйг Р. Бэксли / Craig R. Baxley) [1989, США, ужасы, фантастика, боевик, BDRip] AVO (Юрий Живов) + VO (Экшен Студио Ленинград)

DL-List and Torrent activity
Size:  1.5 GB   |    Registered:  2 years 9 months   |    Completed:  16 times
Seeders:  2  
 
   
 
 

erzsebet.org ®

Longevity:
2 years 9 months
Posts:
47596

[Quote] 

Ангел тьмы / Мрачный ангел / Тёмный ангел / Чёрный ангел / Я пришёл с миром / Dark Angel / I Come in Peace
Страна: США
Жанр: ужасы, фантастика, боевик
Год выпуска: 1989
Продолжительность: 01:31:56
Перевод: Авторский (одноголосый закадровый) Юрий Живов
Перевод 2: Одноголосый закадровый Экшен Студио Ленинград (отдельно)
Субтитры: нет
Режиссер: Крэйг Р. Бэксли / Craig R. Baxley
В ролях: Дольф Лундгрен, Брайан Бенбен, Бетси Брэнтли, Маттиас Хьюз, Джей Билас, Джим Хейни, Дэвид Экройд, Шерман Ховард, Сэм Андерсон
Описание: Опытному полицейскому Джеку Кейну поручено опасное задержание обезумевшего, кровожадного преступника. Задуманная, слаженная операция превращается в невероятно ужасную бойню. Старинный друг, напарник копа трагически погибает в ожесточённой перестрелке. Смерть коллеги невероятно удручает мужчину, желая отомстить за погибшего верного товарища, жаждущий мести служитель загона начинает собственное, скрупулёзное расследование случившегося. Благодаря многолетнему опыту, блестящей дедуктивной работе, отчаянный мститель выходит на внушительную череду весьма странных, загадочных смертей. Повсеместно жертвы, не являющиеся зависимыми наркоманами, погибают от передозировки чистейшего героина. Вместе с загадочным служащим ФБР, занимающимся этим же запутанным расследованием, Кейн выходит на мистический след некоего, совершенно невиданного существа. Вероятным убийцей оказывается коварный, инопланетный пришелец, хитроумным способом заметающий малейшие следы своего явного присутствия и охотящийся за бесценным людским мозгом....
Доп. информация: Выражаю огромную благодарность Нордеру за синхронизацию звуковых дорожек. За дорогу С Живовым благодарим инкогнитоГ.
Сэмпл: http://multi-up.com/1177380
Качество видео: BDRip (Исходник BDRemux 1080p)
Формат видео: AVI
Видео: XviD 73, 704x400, (16:9), 23,976 fps, 1938 Кбит/с, 8 бит, 0.29 bit/pixel
Аудио: Русский (АС3, 2 ch (Front: L R), 48,0 KHz, 192 Kbps) Юрий Живов
Аудио 2: Русский (АС3, 2 ch (Front: L R), 48,0 KHz, 192 Kbps) Экшен Студио Ленинград (отдельно)

MediaInfo

Общее
Полное имя : H:\Фильмы на трекер\Ангел тьмы (ужасы, фантастика, боевик 1989 год).avi
Формат : AVI
Формат/Информация : Audio Video Interleave
Размер файла : 1,37 Гбайт
Продолжительность : 1 ч. 31 м.
Общий поток : 2140 Кбит/сек
Программа кодирования : VirtualDubMod 1.5.10.3 | www.virtualdub-fr.org || (build 2550/release)
Библиотека кодирования : VirtualDubMod build 2550/release
Видео
Идентификатор : 0
Формат : MPEG-4 Visual
Профиль формата : Advanced [email protected]
Параметр BVOP формата : 2
Параметр QPel формата : Нет
Параметр GMC формата : Без точки перехода
Параметр матрицы формата : Выборочная
Идентификатор кодека : XVID
Идентификатор кодека/Подсказка : XviD
Продолжительность : 1 ч. 31 м.
Битрейт : 1938 Кбит/сек
Ширина : 704 пикселя
Высота : 400 пикселей
Соотношение сторон : 16:9
Частота кадров : 23,976 (23976/1000) кадра/сек
Цветовое пространство : YUV
Субдискретизация насыщенности : 4:2:0
Битовая глубина : 8 бит
Тип развёртки : Прогрессивная
Метод сжатия : С потерями
Бит/(Пиксели*Кадры) : 0.287
Размер потока : 1,24 Гбайт (91%)
Библиотека кодирования : XviD 73
Аудио
Идентификатор : 1
Формат : AC-3
Формат/Информация : Audio Coding 3
Расширение режима : CM (complete main)
Параметр Endianness формата : Big
Идентификатор кодека : 2000
Продолжительность : 1 ч. 31 м.
Вид битрейта : Постоянный
Битрейт : 192 Кбит/сек
Каналы : 2 канала
Расположение каналов : Front: L R
Частота : 48,0 КГц
Частота кадров : 31,250 кадров/сек (1536 spf)
Метод сжатия : С потерями
Размер потока : 126 Мбайт (9%)
Выравнивание : Разделение по промежуткам
Продолжительность промежутка : 42 мс. (1,00 видеокадр)
Время предзагрузки промежутка : 500 мс.

Скриншот c названием фильма

Скриншоты

If your ratio falls below 0.3, you will not be able to download Torrents! More about the rating.

[erzsebet.pl].t587.torrent
Torrent: Registered   [ 2017-12-02 17:13 ]

Download .torrent

Download

16 KB

Status: checked
Completed: 16 times
Size: 1.5 GB
terms.php

#1

02-Dec-2017 17:13

[Profile]  [PM] 
Display posts:    

You cannot post new topics in this forum
You cannot reply to topics in this forum
You cannot edit your posts in this forum
You cannot delete your posts in this forum
You cannot vote in polls in this forum
You cannot attach files in this forum
You can download files in this forum
User agreement
For copyright holders
Advertise on this site

Скачайте на халяву через торрент на трекере erzsebet.pl

!ATTENTION!
The site does not give electronic versions of products, and is engaged only in a collecting and cataloguing of the references sent and published at a forum by our readers. If you are the legal owner of any submitted material and do not wish that the reference to it was in our catalogue, contact us and we shall immediately remove her. Files for an exchange on tracker are given by users of a site, and the administration does not bear the responsibility for their maintenance. The request to not fill in the files protected by copyrights, and also files of the illegal maintenance!