Идем дальше / Idemo dalje (Здравко Шотра / Zdravko Sotra) [1982, Югославия, Драма, комедия, DVDRip] VO (Семен Ващенко)

DL-List and Torrent activity
Size:  1.37 GB   |    Registered:  2 years 9 months   |    Completed:  16 times
Seeders:  4   Leechers:  1   Show peers in full details
 
   
 
 

erzsebet.org ®

Longevity:
2 years 9 months
Posts:
47596

[Quote] 

Идем дальше / Idemo dalje
Страна: Югославия
Жанр: Драма, комедия
Год выпуска: 1982
Продолжительность: 01:24:30
Перевод: Одноголосый закадровый Семен Ващенко
Субтитры: нет
Оригинальная аудиодорожка: Сербохорватская
Режиссер: Здравко Шотра / Zdravko Sotra
В ролях: Драган Николич / Dragan Nikolic, Велимир «Бата» Живоинович / Velimir «Bata» Zivojinovic, Данило Бата Стойкович / Danilo «Bata» Stojkovic, Эна Бегович / Ena Begovic, Павле Вуисич / Pavle Vuisic, Оливера Маркович / Olivera Markovic, Слободан Алигрудич / Slobodan Aligrudic
Описание: Вторая мировая война подходит к концу, молодой партизан вынужден столкнуться с новыми проблемами после назначения школьным учителем в маленьком сербском городке.
Доп. информация: Rip С моего DVD http://erzsebet.org/forum/viewtopic.php?t=5481832
Сравнение http://erzsebet.org/forum/viewtopic.php?t=5341936 - http://screenshotcomparison.com/comparison/124306/picture:2
Сэмпл: http://multi-up.com/1177343
Качество видео: DVDRip
Формат видео: AVI
Видео: XviD 688х512, 25.000 fps, 1 925 Kbps
Аудио 1: Русский (AC3 192 kbps 2 ch 48.0 KHz)
Аудио 2: Сербохорватский (AC3 192 kbps 2 ch 48.0 KHz)

MediaInfo

General
Complete name : C:\Documents and Settings\Admin\Мои документы\Downloads\Idemo dalje 1982.avi
Format : AVI
Format/Info : Audio Video Interleave
File size : 1.37 GiB
Duration : 1h 24mn
Overall bit rate : 2 318 Kbps
Writing application : VirtualDubMod 1.5.4.1 (build 2178/release)
Writing library : VirtualDubMod build 2178/release
Video
ID : 0
Format : MPEG-4 Visual
Format profile : Advanced Simple[email protected]
Format settings, BVOP : 1
Format settings, QPel : No
Format settings, GMC : No warppoints
Format settings, Matrix : Custom
Codec ID : XVID
Codec ID/Hint : XviD
Duration : 1h 24mn
Bit rate : 1 925 Kbps
Width : 688 pixels
Height : 512 pixels
Display aspect ratio : 4:3
Frame rate : 25.000 fps
Color space : YUV
Chroma subsampling : 4:2:0
Bit depth : 8 bits
Scan type : Progressive
Compression mode : Lossy
Bits/(Pixel*Frame) : 0.219
Stream size : 1.14 GiB (83%)
Writing library : XviD 1.2.1 (UTC 2008-12-04)
Audio #1
ID : 1
Format : AC-3
Format/Info : Audio Coding 3
Mode extension : CM (complete main)
Format settings, Endianness : Big
Codec ID : 2000
Duration : 1h 24mn
Bit rate mode : Constant
Bit rate : 192 Kbps
Channel(s) : 2 channels
Channel positions : Front: L R
Sampling rate : 48.0 KHz
Bit depth : 16 bits
Compression mode : Lossy
Stream size : 116 MiB (8%)
Alignment : Split accross interleaves
Interleave, duration : 96 ms (2.40 video frames)
Interleave, preload duration : 96 ms
Language : Russian
Audio #2
ID : 2
Format : AC-3
Format/Info : Audio Coding 3
Mode extension : CM (complete main)
Format settings, Endianness : Big
Codec ID : 2000
Duration : 1h 24mn
Bit rate mode : Constant
Bit rate : 192 Kbps
Channel(s) : 2 channels
Channel positions : Front: L R
Sampling rate : 48.0 KHz
Bit depth : 16 bits
Compression mode : Lossy
Stream size : 116 MiB (8%)
Alignment : Split accross interleaves
Interleave, duration : 96 ms (2.40 video frames)
Interleave, preload duration : 96 ms
Language : Serbian

Скриншот c названием фильма

Скриншоты

If your ratio falls below 0.3, you will not be able to download Torrents! More about the rating.

[erzsebet.pl].t589.torrent
Torrent: Registered   [ 2017-12-02 17:13 ]

Download .torrent

Download

14 KB

Status: checked
Completed: 16 times
Size: 1.37 GB
terms.php

#1

02-Dec-2017 17:13

[Profile]  [PM] 
Display posts:    

You cannot post new topics in this forum
You cannot reply to topics in this forum
You cannot edit your posts in this forum
You cannot delete your posts in this forum
You cannot vote in polls in this forum
You cannot attach files in this forum
You can download files in this forum
User agreement
For copyright holders
Advertise on this site

Скачайте на халяву через торрент на трекере erzsebet.pl

!ATTENTION!
The site does not give electronic versions of products, and is engaged only in a collecting and cataloguing of the references sent and published at a forum by our readers. If you are the legal owner of any submitted material and do not wish that the reference to it was in our catalogue, contact us and we shall immediately remove her. Files for an exchange on tracker are given by users of a site, and the administration does not bear the responsibility for their maintenance. The request to not fill in the files protected by copyrights, and also files of the illegal maintenance!