Побег / La carapate / The Escape (Жерар Ури / Gérard Oury) [1978, Франция, комедия, криминал, HDRip] DVO (НТВ+ по заказу НТВ) + Original Fre

DL-List and Torrent activity
Size:  1.46 GB   |    Registered:  2 years 9 months   |    Completed:  16 times
Seeders:  1  
 
   
 
 

erzsebet.org ®

Longevity:
2 years 9 months
Posts:
47596

[Quote] 

Побег / La carapate / The Escape Страна: Франция
Жанр: комедия, криминал
Год выпуска: 1978
Продолжительность: 01:39:47
Перевод: Профессиональный (двухголосый закадровый) - НТВ+ по заказу НТВ
Текст читали Наталья Казначеева и Андрей Ярославцев)
Субтитры: нет
Оригинальная аудиодорожка: французская
Режиссер: Жерар Ури / Gérard Oury
В ролях: Пьер Ришар, Виктор Лану, Раймон Бюссьер, Клод Броссе, Жак Франц, Клер Ришар, Бланш Равалек, Бернар Гранже, Робер Дальбан, Адриен Кайла-Легран.
Описание: Адвокат Дюрок навещает своего клиента в камере смертников. Внезапно начинается массовый бунт, и недотепа адвокат бежит вместе с остальными заключенными, спасаясь от пуль полицейских, вместе со своим подзащитным Галаром, которого полиция считает зачинщиком всех беспорядков. Бесчисленные погони, веселые и пикантные ситуации, общая опасность сближают героев и они становятся друзьями…

Доп. информация: Благодарность за исходник - BDRip (720p) - направляется filin1984 (Kinozal)
Оцифровка звука с VHS с записью эфира 5 канала Санкт-Петербург из личной коллекции - Hel_ka67
HDRip и синхронизация русской аудиодорожки - Arle-kino

Качество видео: HDRip
Формат видео: AVI
Видео: 720x432 (1.67:1), 24.000 fps, XviD build 50 ~1789 kbps avg, 0.24 bit/pixel
Аудио 1: 48 kHz, AC3 Dolby Digital, 1/0 (C) ch, ~96 kbps - Rus
Аудио 2: 48 kHz, AC3 Dolby Digital, 2/0 (L,R) ch, ~192 kbps - Fra

MediaInfo

General
Complete name : D:\Public\La carapate - 1978 - HDRip (rus, fra).avi
Format : AVI
Format/Info : Audio Video Interleave
File size : 1.46 GiB
Duration : 1 h 39 min
Overall bit rate : 2 093 kb/s
Writing application : VirtualDubMod 1.5.10.2 (build 2540/release)
Writing library : VirtualDubMod build 2540/release
Video
ID : 0
Format : MPEG-4 Visual
Format profile : Advanced [email protected]
Format settings, BVOP : 1
Format settings, QPel : No
Format settings, GMC : No warppoints
Format settings, Matrix : Default (MPEG)
Codec ID : XVID
Codec ID/Hint : XviD
Duration : 1 h 39 min
Bit rate : 1 791 kb/s
Width : 720 pixels
Height : 432 pixels
Display aspect ratio : 5:3
Frame rate : 24.000 FPS
Color space : YUV
Chroma subsampling : 4:2:0
Bit depth : 8 bits
Scan type : Progressive
Compression mode : Lossy
Bits/(Pixel*Frame) : 0.240
Stream size : 1.25 GiB (86%)
Writing library : XviD 1.2.1 (UTC 2008-12-04)
Audio #1
ID : 1
Format : AC-3
Format/Info : Audio Coding 3
Format settings, Endianness : Big
Codec ID : 2000
Duration : 1 h 39 min
Bit rate mode : Constant
Bit rate : 96.0 kb/s
Channel(s) : 1 channel
Channel positions : Front: C
Sampling rate : 48.0 kHz
Frame rate : 31.250 FPS (1536 SPF)
Bit depth : 16 bits
Compression mode : Lossy
Stream size : 68.5 MiB (5%)
Alignment : Split accross interleaves
Interleave, duration : 42 ms (1.00 video frame)
Interleave, preload duratio : 500 ms
Title : Rus
Service kind : Complete Main
Audio #2
ID : 2
Format : AC-3
Format/Info : Audio Coding 3
Format settings, Endianness : Big
Codec ID : 2000
Duration : 1 h 39 min
Bit rate mode : Constant
Bit rate : 192 kb/s
Channel(s) : 2 channels
Channel positions : Front: L R
Sampling rate : 48.0 kHz
Frame rate : 31.250 FPS (1536 SPF)
Bit depth : 16 bits
Compression mode : Lossy
Stream size : 137 MiB (9%)
Alignment : Split accross interleaves
Interleave, duration : 42 ms (1.00 video frame)
Interleave, preload duratio : 500 ms
Title : Fra
Service kind : Complete Main

Скриншот c названием фильма

Скриншоты

If your ratio falls below 0.3, you will not be able to download Torrents! More about the rating.

[erzsebet.pl].t59.torrent
Torrent: Registered   [ 2017-12-02 15:58 ]

Download .torrent

Download

15 KB

Status: checked
Completed: 16 times
Size: 1.46 GB
terms.php

#1

02-Dec-2017 15:57

[Profile]  [PM] 
Display posts:    

You cannot post new topics in this forum
You cannot reply to topics in this forum
You cannot edit your posts in this forum
You cannot delete your posts in this forum
You cannot vote in polls in this forum
You cannot attach files in this forum
You can download files in this forum
User agreement
For copyright holders
Advertise on this site

Скачайте на халяву через торрент на трекере erzsebet.pl

!ATTENTION!
The site does not give electronic versions of products, and is engaged only in a collecting and cataloguing of the references sent and published at a forum by our readers. If you are the legal owner of any submitted material and do not wish that the reference to it was in our catalogue, contact us and we shall immediately remove her. Files for an exchange on tracker are given by users of a site, and the administration does not bear the responsibility for their maintenance. The request to not fill in the files protected by copyrights, and also files of the illegal maintenance!