Третье решение / Руссикум, дни дьявола / The Third Solution / Russicum - I giorni del diavolo (Паскуале Скуитьери / Pasquale Squitieri) [1988, Италия, триллер, криминал, VHSRip] AVO (Андрей Гаврилов)

DL-List and Torrent activity
Size:  1.46 GB   |    Registered:  2 years 9 months   |    Completed:  16 times
Seeders:  7   Leechers:  1   Show peers in full details
 
   
 
 

erzsebet.org ®

Longevity:
2 years 9 months
Posts:
47596

[Quote] 

Третье решение / Руссикум, дни дьявола / The Third Solution / Russicum - I giorni del diavolo
Страна: Италия
Жанр: триллер, криминал
Год выпуска: 1988
Продолжительность: 01:52:55
Перевод: Авторский (одноголосый закадровый) Андрей Гаврилов
Субтитры: нет
Режиссер: Паскуале Скуитьери / Pasquale Squitieri
В ролях: Трит Уильямс /Treat Williams/, Ф. Мюррей Абрахам /F. Murray Abraham/, Дэнни Айелло /Danny Aiello/, Рита Русик, Найджел Корт, Леопольдо Мастеллони, Россано Брацци /Rossano Brazzi/
Описание: Очень претенциозный, сложный по сюжету политический детектив по книге Энцо Руссо. Американский дипломат в Риме (Уильямс) попадает в самое пекло сложнейшего международного заговора с целью не допустить миссии мира папы Римского в Москву. Здесь замешаны и ЦРУ, и КГБ, и итальянская шпионская агентура, и религиозные интриганы разных конфессий. (Иванов М.)
Доп. информация: Оцифровка VHS (личный архив) и получение VHSRip alenavova
Эксклюзив для erzsebet.org. При размещении данного релиза на других сайтах ссылка на автора alenavova обязательна.
Релиз
Сэмпл: https://yadi.sk/i/3dmgk3qZ3PsYXP
Качество видео: VHSRip
Формат видео: AVI
Видео: 704x464 (1.52:1), 25 fps, XviD build 73 ~1654 kbps avg, 0.20 bit/pixel
Аудио: 48 kHz, AC3 Dolby Digital, 2/0 (L,R) ch, ~192 kbps

MediaInfo

Третье решение - The Third Solution (by alenavova).avi
Format : AVI
Format/Info : Audio Video Interleave
File size : 1.46 GiB
Duration : 1 h 52 min
Overall bit rate : 1 857 kb/s
Movie name : Третье решение - The Third Solution (by alenavova)
Director : by alenavova
Writing application : VirtualDubMod 1.5.10.3 | www.virtualdub-fr.org || (build 2550/release)
Copyright : Edich2
Comment : erzsebet.org
Video
ID : 0
Format : MPEG-4 Visual
Format profile : Advanced [email protected]
Format settings, BVOP : 2
Format settings, QPel : No
Format settings, GMC : No warppoints
Format settings, Matrix : Custom
Codec ID : XVID
Codec ID/Hint : XviD
Duration : 1 h 52 min
Bit rate : 1 655 kb/s
Width : 704 pixels
Height : 464 pixels
Display aspect ratio : 3:2
Frame rate : 25.000 FPS
Color space : YUV
Chroma subsampling : 4:2:0
Bit depth : 8 bits
Scan type : Progressive
Compression mode : Lossy
Bits/(Pixel*Frame) : 0.203
Stream size : 1.31 GiB (89%)
Writing library : XviD 73
Audio
ID : 1
Format : AC-3
Format/Info : Audio Coding 3
Format settings, Endianness : Big
Codec ID : 2000
Duration : 1 h 52 min
Bit rate mode : Constant
Bit rate : 192 kb/s
Channel(s) : 2 channels
Channel positions : Front: L R
Sampling rate : 48.0 kHz
Frame rate : 31.250 FPS (1536 spf)
Bit depth : 16 bits
Compression mode : Lossy
Stream size : 155 MiB (10%)
Alignment : Split accross interleaves
Interleave, duration : 40 ms (1.00 video frame)
Interleave, preload duratio : 500 ms
Service kind : Complete Main

Скриншоты


If your ratio falls below 0.3, you will not be able to download Torrents! More about the rating.

[erzsebet.pl].t593.torrent
Torrent: Registered   [ 2017-12-02 17:13 ]

Download .torrent

Download

15 KB

Status: checked
Completed: 16 times
Size: 1.46 GB
terms.php

#1

02-Dec-2017 17:13

[Profile]  [PM] 
Display posts:    

You cannot post new topics in this forum
You cannot reply to topics in this forum
You cannot edit your posts in this forum
You cannot delete your posts in this forum
You cannot vote in polls in this forum
You cannot attach files in this forum
You can download files in this forum
User agreement
For copyright holders
Advertise on this site

Скачайте на халяву через торрент на трекере erzsebet.pl

!ATTENTION!
The site does not give electronic versions of products, and is engaged only in a collecting and cataloguing of the references sent and published at a forum by our readers. If you are the legal owner of any submitted material and do not wish that the reference to it was in our catalogue, contact us and we shall immediately remove her. Files for an exchange on tracker are given by users of a site, and the administration does not bear the responsibility for their maintenance. The request to not fill in the files protected by copyrights, and also files of the illegal maintenance!