Реквием / Последний поезд в Берлин / Rekvijem / Last train to Berlin (Часлав Дамьянович / Časlav Damjanović) [1970, Югославия, военный, драма, WEB-DLRip] VO (Виктор Рутилов)

DL-List and Torrent activity
Size:  1.09 GB   |    Registered:  2 years 9 months   |    Completed:  16 times
Seeders:  6   Leechers:  2   Show peers in full details
 
   
 
 

erzsebet.org ®

Longevity:
2 years 9 months
Posts:
47596

[Quote] 

Реквием / Последний поезд в Берлин / Rekvijem / Last train to Berlin
Страна: Югославия
Жанр: военный, драма
Год выпуска: 1970
Продолжительность: 01:24:30
Перевод: Одноголосый закадровый (Виктор Рутилов)
Субтитры: нет
Оригинальная аудиодорожка: нет
Режиссер: Часлав Дамьянович / Časlav Damjanović
В ролях: Ти Хардин, Джорджия Молл, Абдуррахман Шала, Дэйл Каммингс, Данило Бата Стойкович, Фарук Беголли, Милтон Рэйд, Душан Янициевич, Янез Врховец
Описание: Действие фильма происходит в 1944 году в Югославии. Немецкие воиска постепенно оставляют занятые территории и отступают. Командование союзников задействовало секретный план, целью которого была помощь югославским партизанам в саботаже и уничтожении последнего поезда в Берлин с золотым запасом страны. Выполнить задание союзники назачили офицера американской армии, ведь он родился в этих краях, и рассказывали даже что он вызвался на это задание сам, в надежде разыскать своего отца. Матея, молодой и пламенный партизанский командир, специалист-подрывник, встретился с ним, и операция началась...
В домашнем прокате фильм вышел под названием "Rekvijem", а в международном (именно эта версия и раздаётся) - под названием "Last train to Berlin".

Доп. информация

По мнению критиков и зрителей на imdb это худший партизанский фильм из когда-либо снятых, что безусловно придаёт дополнительную мотивацию к просмотру.
Сэмпл: http://multi-up.com/1176721
Качество видео: WEB-DLRip
Формат видео: AVI
Видео: XviD, 720x400, 16:9, 23.976 кадр/с. 1645 Kbit/с,
Аудио: AC3, 48.0 kHz, 192 Кбит/с, 2 chanels

MediaInfo

General
Complete name : /home/evgeny/Загрузки/Rekvijem.WEB-DLRip[1970].avi
Format : AVI
Format/Info : Audio Video Interleave
File size : 1.09 GiB
Duration : 1 h 24 min
Overall bit rate : 1 846 kb/s
Writing application : VirtualDubMod 1.5.10.2 (build 2540/release)
Writing library : VirtualDubMod build 2540/release
Video
ID : 0
Format : MPEG-4 Visual
Format profile : Advanced [email protected]
Format settings : BVOP1 / Custom Matrix
Format settings, BVOP : 1
Format settings, QPel : No
Format settings, GMC : No warppoints
Format settings, Matrix : Custom
Codec ID : XVID
Codec ID/Hint : XviD
Duration : 1 h 24 min
Bit rate : 1 645 kb/s
Width : 720 pixels
Height : 400 pixels
Display aspect ratio : 16:9
Frame rate : 23.976 (24000/1001) FPS
Color space : YUV
Chroma subsampling : 4:2:0
Bit depth : 8 bits
Scan type : Progressive
Compression mode : Lossy
Bits/(Pixel*Frame) : 0.238
Stream size : 994 MiB (89%)
Writing library : XviD 65
Audio
ID : 1
Format : AC-3
Format/Info : Audio Coding 3
Format settings, Endianness : Big
Codec ID : 2000
Duration : 1 h 24 min
Bit rate mode : Constant
Bit rate : 192 kb/s
Channel(s) : 2 channels
Channel positions : Front: L R
Sampling rate : 48.0 kHz
Frame rate : 31.250 FPS (1536 SPF)
Bit depth : 16 bits
Compression mode : Lossy
Stream size : 116 MiB (10%)
Alignment : Split accross interleaves
Interleave, duration : 42 ms (1.00 video frame)
Interleave, preload duration : 500 ms
Service kind : Complete Main

Скриншот c названием фильма

Скриншоты





If your ratio falls below 0.3, you will not be able to download Torrents! More about the rating.

[erzsebet.pl].t596.torrent
Torrent: Registered   [ 2017-12-02 17:13 ]

Download .torrent

Download

22 KB

Status: checked
Completed: 16 times
Size: 1.09 GB
terms.php

#1

02-Dec-2017 17:13

[Profile]  [PM] 
Display posts:    

You cannot post new topics in this forum
You cannot reply to topics in this forum
You cannot edit your posts in this forum
You cannot delete your posts in this forum
You cannot vote in polls in this forum
You cannot attach files in this forum
You can download files in this forum
User agreement
For copyright holders
Advertise on this site

Скачайте на халяву через торрент на трекере erzsebet.pl

!ATTENTION!
The site does not give electronic versions of products, and is engaged only in a collecting and cataloguing of the references sent and published at a forum by our readers. If you are the legal owner of any submitted material and do not wish that the reference to it was in our catalogue, contact us and we shall immediately remove her. Files for an exchange on tracker are given by users of a site, and the administration does not bear the responsibility for their maintenance. The request to not fill in the files protected by copyrights, and also files of the illegal maintenance!