Сканнеры 3: Переворот / Сканнеры 3: Овладение / Scanners III: The Takeover (Кристиан Дюге / Christian Duguay) [1991, Канада, США, ужасы, фантастика, триллер, DVDRip] AVO (Андрей Гаврилов)

DL-List and Torrent activity
Size:  1.38 GB   |    Registered:  2 years 9 months   |    Completed:  16 times
Seeders:  2   Leechers:  1   Show peers in full details
 
   
 
 

erzsebet.org ®

Longevity:
2 years 9 months
Posts:
47596

[Quote] 

Сканнеры 3: Переворот / Сканнеры 3: Овладение / Scanners III: The Takeover
Страна: Канада, США
Жанр: ужасы, фантастика, триллер
Год выпуска: 1991
Продолжительность: 01:35:29
Перевод: Авторский (одноголосый закадровый) Андрей Гаврилов
Субтитры: нет
Режиссер: Кристиан Дюге / Christian Duguay
В ролях: Лилиана Коморовска, Валери Валуа, Стив Пэрриш, Колин Фокс, Дэниэл Пилон, Питер Уайт, Сит Секаэ, Гарри Хилл, Клэр Целлукки
Описание: Алекс Монэ в результате стечения обстоятельств, оказался виновным в смерти собственного друга. На протяжении двух лет мужчина находился в одном из тибетских монастырей. Но теперь он решил вернуться к обычной жизни, для этого он приезжает в Соединенные Штаты. Он хочет стать вновь нормальным человеком, тем более, что именно в Америке проживает его сестричка по имени Элен Монэ. Девушка не теряла времени зря, она уже приступила к воплощению своих планов, но вы не думайте, это не покупка нового платья или счастливое замужество – она хочет господствовать над всем миром. При этом, сама Элен полагает, что все обществом должны управлять никто иные, как сканеры, они должны отдавать необходимые приказы, а люди должны подчиняться им. В это же время, Алекс оказался категорически против мнения его сестры. У него нет ни малейшего желания шагать по горе из трупов, для того чтобы достигнуть поставленных целей, в отличии от его родной сестры Элен....
Доп. информация: Выражаю огромную благодарность Нордеру за синхронизацию звуковой дорожки.
Сэмпл: http://multi-up.com/1178260
Качество видео: DVDRip (Исходник - DVD Video)
Формат видео: AVI
Видео: XviD 73, 704x400, (16:9), 25,000 fps, 1873 Кбит/с, 8 бит, 0.27 bit/pixel
Аудио: Русский (АС3, 2 ch (Front: L R), 48,0 KHz, 192 Kbps)

MediaInfo

Общее
Полное имя : H:\Фильмы на трекер\Сканнеры - 3 Переворот (ужасы, фантастика, триллер 1991 год).avi
Формат : AVI
Формат/Информация : Audio Video Interleave
Размер файла : 1,38 Гбайт
Продолжительность : 1 ч. 35 м.
Общий поток : 2074 Кбит/сек
Программа кодирования : VirtualDubMod 1.5.10.3 | www.virtualdub-fr.org || (build 2550/release)
Библиотека кодирования : VirtualDubMod build 2550/release
Видео
Идентификатор : 0
Формат : MPEG-4 Visual
Профиль формата : Advanced [email protected]
Параметр BVOP формата : 2
Параметр QPel формата : Нет
Параметр GMC формата : Без точки перехода
Параметр матрицы формата : Выборочная
Идентификатор кодека : XVID
Идентификатор кодека/Подсказка : XviD
Продолжительность : 1 ч. 35 м.
Битрейт : 1873 Кбит/сек
Ширина : 704 пикселя
Высота : 400 пикселей
Соотношение сторон : 16:9
Частота кадров : 25,000 кадров/сек
Цветовое пространство : YUV
Субдискретизация насыщенности : 4:2:0
Битовая глубина : 8 бит
Тип развёртки : Прогрессивная
Метод сжатия : С потерями
Бит/(Пиксели*Кадры) : 0.266
Размер потока : 1,25 Гбайт (90%)
Библиотека кодирования : XviD 73
Аудио
Идентификатор : 1
Формат : AC-3
Формат/Информация : Audio Coding 3
Расширение режима : CM (complete main)
Параметр Endianness формата : Big
Идентификатор кодека : 2000
Продолжительность : 1 ч. 35 м.
Вид битрейта : Постоянный
Битрейт : 192 Кбит/сек
Каналы : 2 канала
Расположение каналов : Front: L R
Частота : 48,0 КГц
Частота кадров : 31,250 кадров/сек (1536 spf)
Метод сжатия : С потерями
Размер потока : 131 Мбайт (9%)
Выравнивание : Разделение по промежуткам
Продолжительность промежутка : 40 мс. (1,00 видеокадр)
Время предзагрузки промежутка : 500 мс.

Скриншот c названием фильма

Скриншоты

If your ratio falls below 0.3, you will not be able to download Torrents! More about the rating.

[erzsebet.pl].t604.torrent
Torrent: Registered   [ 2017-12-02 17:15 ]

Download .torrent

Download

14 KB

Status: checked
Completed: 16 times
Size: 1.38 GB
terms.php

#1

02-Dec-2017 17:15

[Profile]  [PM] 
Display posts:    

You cannot post new topics in this forum
You cannot reply to topics in this forum
You cannot edit your posts in this forum
You cannot delete your posts in this forum
You cannot vote in polls in this forum
You cannot attach files in this forum
You can download files in this forum
User agreement
For copyright holders
Advertise on this site

Скачайте на халяву через торрент на трекере erzsebet.pl

!ATTENTION!
The site does not give electronic versions of products, and is engaged only in a collecting and cataloguing of the references sent and published at a forum by our readers. If you are the legal owner of any submitted material and do not wish that the reference to it was in our catalogue, contact us and we shall immediately remove her. Files for an exchange on tracker are given by users of a site, and the administration does not bear the responsibility for their maintenance. The request to not fill in the files protected by copyrights, and also files of the illegal maintenance!