Братья Крэй / The Krays (Питер Медак / Peter Medak) [1990, Великобритания, детектив, драма, криминал, DVDRip] AVO (Сергей Кузнецов - VHS)

DL-List and Torrent activity
Size:  1.45 GB   |    Registered:  2 years 9 months   |    Completed:  16 times
Seeders:  2  
 
   
 
 

erzsebet.org ®

Longevity:
2 years 9 months
Posts:
47596

[Quote] 

Братья Крэй / The Krays
Страна: Великобритания
Жанр: детектив, драма, криминал
Год выпуска: 1990
Продолжительность: 01:54:55
Перевод: Авторский (одноголосый закадровый) Сергей Кузнецов (VHS)
Субтитры: нет
Режиссер: Питер Медак / Peter Medak
В ролях: Гари Кемп, Мартин Кемп, Билли Уайтлоу, Том Белл, Сьюзен Флитвуд, Шарлотта Корнвэлл, Кейт Харди, Эвис Баннейдж, Альфред Линч
Описание: Роналд и Реджиналд воспитывалась матерью Вайолет, держащей всё под контролем и безумно любившей сыновей. Их семья вообще была довольно дружной и сплочённой, и в ней, безусловно, правили женщины. С раннего детства парни впитали законы выживания и поняли, что прав тот, кто сильнее. Они везде хотели играть первые роли и начали зарабатывать авторитет ещё на школьном дворе. Повзрослев, Рон и Реджи открыли собственный клуб, а все дела решали с помощью оружия, без зазрения совести пуская его в ход. Конкуренты и не доказавшие преданность партнёры с пугающей частотой сталкивались с агрессивным поведением Крэй и редко выходили из подобных «бесед» целыми и невредимыми. Братья-близнецы преобразились, окружили себя и близких роскошью, стали носить строгие костюмы, придав кровавому бизнесу стиль. Преступный мир оказался для Рона и Реджи открытой книгой, где можно не только прочитать истории о других, но и оставить свой след, способный и через десятилетия впечатлять потомков....
Доп. информация: Выражаю огромную благодарность Нордеру за синхронизацию звуковой дорожки.
Сэмпл: http://multi-up.com/1176261
Качество видео: DVDRip (Исходник - DVD Video)
Формат видео: AVI
Видео: XviD 73, 720x384, (1,85:1), 25,000 fps, 1578 Кбит/с, 8 бит, 0.23 bit/pixel
Аудио: Русский (АС3, 2 ch (Front: L R), 48,0 KHz, 224 Kbps)

MediaInfo

Общее
Полное имя : D:\Видеофильмы\В и д е о\Братья Крэй (детектив, драма, криминал 1990 год).avi
Формат : AVI
Формат/Информация : Audio Video Interleave
Размер файла : 1,45 Гбайт
Продолжительность : 1 ч. 54 м.
Общий поток : 1812 Кбит/сек
Программа кодирования : VirtualDubMod 1.5.10.2 (build 2540/release)
Библиотека кодирования : VirtualDubMod build 2540/release
Видео
Идентификатор : 0
Формат : MPEG-4 Visual
Профиль формата : Advanced [email protected]
Параметр BVOP формата : 2
Параметр QPel формата : Нет
Параметр GMC формата : Без точки перехода
Параметр матрицы формата : Выборочная
Идентификатор кодека : XVID
Идентификатор кодека/Подсказка : XviD
Продолжительность : 1 ч. 54 м.
Битрейт : 1578 Кбит/сек
Ширина : 720 пикселей
Высота : 384 пикселя
Соотношение сторон : 1,85:1
Частота кадров : 25,000 кадров/сек
Цветовое пространство : YUV
Субдискретизация насыщенности : 4:2:0
Битовая глубина : 8 бит
Тип развёртки : Прогрессивная
Метод сжатия : С потерями
Бит/(Пиксели*Кадры) : 0.228
Размер потока : 1,27 Гбайт (87%)
Библиотека кодирования : XviD 73
Аудио
Идентификатор : 1
Формат : AC-3
Формат/Информация : Audio Coding 3
Расширение режима : CM (complete main)
Параметр Endianness формата : Big
Идентификатор кодека : 2000
Продолжительность : 1 ч. 54 м.
Вид битрейта : Постоянный
Битрейт : 224 Кбит/сек
Каналы : 2 канала
Расположение каналов : Front: L R
Частота : 48,0 КГц
Частота кадров : 31,250 кадров/сек (1536 spf)
Метод сжатия : С потерями
Размер потока : 184 Мбайт (12%)
Выравнивание : Разделение по промежуткам
Продолжительность промежутка : 40 мс. (1,00 видеокадр)
Время предзагрузки промежутка : 500 мс.

Скриншот c названием фильма

Скриншоты

If your ratio falls below 0.3, you will not be able to download Torrents! More about the rating.

[erzsebet.pl].t605.torrent
Torrent: Registered   [ 2017-12-02 17:13 ]

Download .torrent

Download

15 KB

Status: checked
Completed: 16 times
Size: 1.45 GB
terms.php

#1

02-Dec-2017 17:13

[Profile]  [PM] 
Display posts:    

You cannot post new topics in this forum
You cannot reply to topics in this forum
You cannot edit your posts in this forum
You cannot delete your posts in this forum
You cannot vote in polls in this forum
You cannot attach files in this forum
You can download files in this forum
User agreement
For copyright holders
Advertise on this site

Скачайте на халяву через торрент на трекере erzsebet.pl

!ATTENTION!
The site does not give electronic versions of products, and is engaged only in a collecting and cataloguing of the references sent and published at a forum by our readers. If you are the legal owner of any submitted material and do not wish that the reference to it was in our catalogue, contact us and we shall immediately remove her. Files for an exchange on tracker are given by users of a site, and the administration does not bear the responsibility for their maintenance. The request to not fill in the files protected by copyrights, and also files of the illegal maintenance!