Среди акул / Плавая с акулами / Swimming with Sharks (Джордж Хуанг / George Huang) [1994, США, Драма, HDTVRip] AVO (Сергей Визгунов)

DL-List and Torrent activity
Size:  1.37 GB   |    Registered:  2 years 9 months   |    Completed:  16 times
Seeders:  2  
 
   
 
 

erzsebet.org ®

Longevity:
2 years 9 months
Posts:
47596

[Quote] 

Среди акул / Плавая с акулами / Swimming with Sharks
«Life is not a movie»
Страна: США
Жанр: Драма
Год выпуска: 1994
Продолжительность: 01:33:05
Перевод: Авторский (одноголосый закадровый) Сергей Визгунов
Субтитры: нет
Режиссер: Джордж Хуанг / George Huang
В ролях: Кевин Спейси, Фрэнк Уэйли, Мишель Форбс, Бенисио Дель Торо, Т. Э. Рассел, Рой Дотрис, Мэттью Флинт, Патрик Фишлер, Джерри Ливайн, Сабрин Дженет
Описание: Молодой парень Гай, начинающий заплыв в компании «Кийстоун», еще не опытен, но он безумно хочет добиться успеха. Работает он на вздорного, грубого вице-президента Бадди Аккермана, помыкающего им и использующего его без зазрения совести.
Действие крутится вокруг нового проекта, фильма «Реальная жизнь», который оказывается инструментом интриг, помогающим Бадди перешагнуть на служебной лестнице через свою начальницу Стеллу и вплотную подойти к Сайрусу, главе компании. Кто же выиграет в этой страшной игре? А может быть выиграть нельзя? Приобретая одно, персонажи теряют другое. Что ценнее — станет известно только позднее, когда придет час расплаты. Ведь за все в этой жизни так или иначе приходится платить.
Доп. информация: Дорожка с С. Визгуновым синхронизирована и наложена ale_x2008 при помощи Sony Vegas и VirtualDubMod.
За оцифрованную с VHS дорожку благодарим - exsmo
Релиз
Сэмпл: https://yadi.sk/i/mw8Cf_1B3QAcY7
Качество видео: HDTVRip
Формат видео: AVI
Видео: XviD build 73, 720x400 (1.80:1), 23.976 fps, 1901 kbps avg, 0.28 bit/pixel
Аудио: AC3 Dolby Digital, 48000Hz 2/0 (L,R) ch (mono), 192.00 kbps avg

MediaInfo

Среди акул - Swimming with Sharks [by ale_x2008].avi
Format : AVI
Format/Info : Audio Video Interleave
File size : 1.37 GiB
Duration : 1 h 33 min
Overall bit rate : 2 103 kb/s
Movie name : Среди акул - Swimming with Sharks [by ale_x2008]
Director : by ale_x2008
Writing application : VirtualDubMod 1.5.10.2 (build 2540/release)
Copyright : Edich2
Comment : erzsebet.org
Video
ID : 0
Format : MPEG-4 Visual
Format profile : Advanced [email protected]
Format settings, BVOP : 2
Format settings, QPel : No
Format settings, GMC : No warppoints
Format settings, Matrix : Custom
Codec ID : XVID
Codec ID/Hint : XviD
Duration : 1 h 33 min
Bit rate : 1 902 kb/s
Width : 720 pixels
Height : 400 pixels
Display aspect ratio : 16:9
Frame rate : 23.976 (24000/1001) FPS
Color space : YUV
Chroma subsampling : 4:2:0
Bit depth : 8 bits
Scan type : Progressive
Compression mode : Lossy
Bits/(Pixel*Frame) : 0.275
Stream size : 1.24 GiB (90%)
Writing library : XviD 73
Audio
ID : 1
Format : AC-3
Format/Info : Audio Coding 3
Format settings, Endianness : Big
Codec ID : 2000
Duration : 1 h 33 min
Bit rate mode : Constant
Bit rate : 192 kb/s
Channel(s) : 2 channels
Channel positions : Front: L R
Sampling rate : 48.0 kHz
Frame rate : 31.250 FPS (1536 spf)
Bit depth : 16 bits
Compression mode : Lossy
Stream size : 128 MiB (9%)
Alignment : Split accross interleaves
Interleave, duration : 42 ms (1.00 video frame)
Interleave, preload duratio : 500 ms
Service kind : Complete Main

Скриншоты


If your ratio falls below 0.3, you will not be able to download Torrents! More about the rating.

[erzsebet.pl].t606.torrent
Torrent: Registered   [ 2017-12-02 17:15 ]

Download .torrent

Download

14 KB

Status: checked
Completed: 16 times
Size: 1.37 GB
terms.php

#1

02-Dec-2017 17:15

[Profile]  [PM] 
Display posts:    

You cannot post new topics in this forum
You cannot reply to topics in this forum
You cannot edit your posts in this forum
You cannot delete your posts in this forum
You cannot vote in polls in this forum
You cannot attach files in this forum
You can download files in this forum
User agreement
For copyright holders
Advertise on this site

Скачайте на халяву через торрент на трекере erzsebet.pl

!ATTENTION!
The site does not give electronic versions of products, and is engaged only in a collecting and cataloguing of the references sent and published at a forum by our readers. If you are the legal owner of any submitted material and do not wish that the reference to it was in our catalogue, contact us and we shall immediately remove her. Files for an exchange on tracker are given by users of a site, and the administration does not bear the responsibility for their maintenance. The request to not fill in the files protected by copyrights, and also files of the illegal maintenance!