Час печали / Голубой час / The Blue Hour / Die blaue Stunde (Марсель Гислер / Marcel Gisler) [1992, Швейцария, Германия, драма, DVDRip] AVO (Кузнецов) + Sub Eng

DL-List and Torrent activity
Size:  714 MB   |    Registered:  2 years 9 months   |    Completed:  16 times
Seeders:  3   Leechers:  2   Show peers in full details
 
   
 
 

erzsebet.org ®

Longevity:
2 years 9 months
Posts:
47596

[Quote] 

Час печали / Голубой часThe Blue Hour / Die blaue Stunde Страна: Швейцария, Германия
Жанр: драма
Год выпуска: 1992
Продолжительность: 01:30:31-Перевод: Авторский (одноголосый закадровый) Сергей Кузнецов
Субтитры: английские-Режиссер: Марсель Гислер / Marcel Gisler
В ролях: Антон Раттингер, Дина Лайпциг, Cyrille Rey-Coquis, Кристоф Крикс, Андреас Хердер, Arne Baur-Worch-Описание:
Тео - молодой проститут живет один. Его дела идут настолько хорошо, что он сам может выбирать себе клиентов. Мари живет рядом с ним со своим бойфрендом, писателем Полем. Она работает в магазине компакт-дисков за них двоих, но денег не хватает. Однажды Поль бросает Мари, и она остается одна. Но тут в ее дверь стучит Тео, и свет медленно возвращается в ее жизнь. Шаг за шагом, они влюбляются друг в друга. Но когда кажется, что барьеры между ними рухнули, Поль возвращается...-Сэмпл-Качество видео: DVDRip
Формат видео: AVI
Видео: 640x416 (1.54:1), 29.970 fps, DivX Codec 5.2.1 ~899 kbps avg, 0.11 bit/pixel
Аудио: 48 kHz, AC3 Dolby Digital, 2/0 (L,R) ch, ~192 kbps
Формат субтитров: hardsub (неотключаемые)

MediaInfo

General
Complete name : G:\Blue.Hour.Kuznecov.avi
Format : AVI
Format/Info : Audio Video Interleave
File size : 714 MiB
Duration : 1h 30mn
Overall bit rate : 1 103 Kbps
Video
ID : 0
Format : MPEG-4 Visual
Format settings, BVOP : 1
Format settings, QPel : No
Format settings, GMC : No warppoints
Format settings, Matrix : Default (H.263)
Codec ID : DX50
Codec ID/Hint : DivX 5
Duration : 1h 30mn
Bit rate : 899 Kbps
Width : 640 pixels
Height : 416 pixels
Display aspect ratio : 3:2
Frame rate : 29.970 fps
Color space : YUV
Chroma subsampling : 4:2:0
Bit depth : 8 bits
Scan type : Progressive
Compression mode : Lossy
Bits/(Pixel*Frame) : 0.113
Stream size : 582 MiB (82%)
Writing library : DivX 5.2.1 Alpha (UTC 2004-09-08)
Audio
ID : 1
Format : AC-3
Format/Info : Audio Coding 3
Mode extension : CM (complete main)
Format settings, Endianness : Big
Codec ID : 2000
Duration : 1h 30mn
Bit rate mode : Constant
Bit rate : 192 Kbps
Channel(s) : 2 channels
Channel positions : Front: L R
Sampling rate : 48.0 KHz
Bit depth : 16 bits
Compression mode : Lossy
Stream size : 124 MiB (17%)
Alignment : Split accross interleaves
Interleave, duration : 33 ms (1.00 video frame)
Interleave, preload duration : 500 ms

Скриншот c названием фильма

Скриншоты

If your ratio falls below 0.3, you will not be able to download Torrents! More about the rating.

[erzsebet.pl].t610.torrent
Torrent: Registered   [ 2017-12-02 17:15 ]

Download .torrent

Download

14 KB

Status: checked
Completed: 16 times
Size: 714 MB
terms.php

#1

02-Dec-2017 17:15

[Profile]  [PM] 
Display posts:    

You cannot post new topics in this forum
You cannot reply to topics in this forum
You cannot edit your posts in this forum
You cannot delete your posts in this forum
You cannot vote in polls in this forum
You cannot attach files in this forum
You can download files in this forum
User agreement
For copyright holders
Advertise on this site

Скачайте на халяву через торрент на трекере erzsebet.pl

!ATTENTION!
The site does not give electronic versions of products, and is engaged only in a collecting and cataloguing of the references sent and published at a forum by our readers. If you are the legal owner of any submitted material and do not wish that the reference to it was in our catalogue, contact us and we shall immediately remove her. Files for an exchange on tracker are given by users of a site, and the administration does not bear the responsibility for their maintenance. The request to not fill in the files protected by copyrights, and also files of the illegal maintenance!