Нирвана / Nirvana (Габриэле Сальваторес / Gabriele Salvatores) [1997, Италия, Франция, Великобритания, фантастика, драма, детектив, DVDRip] DVO (ТВС) + Original Eng

DL-List and Torrent activity
Size:  1.46 GB   |    Registered:  2 years 9 months   |    Completed:  16 times
Seeders:  2   Leechers:  1   Show peers in full details
 
   
 
 

erzsebet.org ®

Longevity:
2 years 9 months
Posts:
47596

[Quote] 

Нирвана / Nirvana-Она началась 21-го декабря 2005-го года.
До Рождества оставалось всего 3 дня.
Поначалу "Нирвану" считали всего лишь игрой.
Но иногда, когда ты хочешь остановить игру, ад не даёт тебе остановиться.
- Год выпуска: 1997
Страна: Италия, Франция, Великобритания
Жанр: фантастика, драма, детектив
Продолжительность: 01:49:20
Перевод: Профессиональный (двухголосый закадровый) - ТВС
Субтитры: нет
Оригинальная аудиодорожка: английский
Режиссер: Габриэле Сальваторес / Gabriele Salvatores
В ролях: Кристофер Ламберт / Jimi Dini, Диего Абатантуоно / Solo, Серджо Рубини / Joystick, Стефания Рокка / Naima, Аманда Сандрелли / Maria, Эмманюэль Сенье / Lisa-Мировая премьера: 24 января 1997-Описание: Действие происходит в совсем близком будущем (2005 год), где грань между истинной реальностью и созданной при помощи компьютерных технологий почти полностью стерта. Джимми разработал новую игру под названием "Нирвана". В ней возможно все, но разуму и здоровью игроков угрожает опасность. Постепенно Джимми осознает, что породил монстра, способного обратиться против своего создателя. Он не хочет быть пешкой в игре и предпочитает небытие предсказуемому и безжалостному ходу событий.-Огромная благодарность:
allecs2010 - видеоряд
cinephil - личная запись фильма с телеканала ТВС через видеомагнитофон и оцифровка звука с видеокассеты.
JUSTKANT - синхронизация перевода.-ДАННЫЙ ПЕРЕВОД НА ТРЕКЕРЕ ПОЯВЛЯЕТСЯ ВПЕРВЫЕ.
Текст читают Олег Куценко и Елена Борзунова-
Рейтинг

MPAA: R - Лицам до 17 лет обязательно присутствие взрослого.-Качество видео: DVDRip
Формат видео: AVI -> //Сэмпл//
Видео: XviD, 688x368 (1.85:1), 25.000 fps, 1517 kbps
Аудио:
1 - 48 khz, AC3 Dolby Digital, 2/0 (L,R) ch, ~192 kbps [ТВС] VHSRip-ТВ
2 - 48 khz, AC3 Dolby Digital, 2/0 (L,R) ch, ~192 kbps [Английский]

MediaInfo

General
Complete name : D:\Нирвана (ТВС + Оригинал).avi
Format : AVI
Format/Info : Audio Video Interleave
File size : 1.46 GiB
Duration : 1 h 49 min
Overall bit rate : 1 915 kb/s
Movie name : Нирвана / Nirvana (ТВС + Оригинал)
Director : JUSTKANT
Writing application : VirtualDubMod 1.5.10.3 (build 2550/release)
Copyright : Качество звука: VHSRipТВ (cinephil)
Video
ID : 0
Format : MPEG-4 Visual
Format profile : Advanced [email protected]
Format settings, BVOP : 1
Format settings, QPel : No
Format settings, GMC : No warppoints
Format settings, Matrix : Custom
Codec ID : XVID
Codec ID/Hint : XviD
Duration : 1 h 49 min
Bit rate : 1 517 kb/s
Width : 688 pixels
Height : 368 pixels
Display aspect ratio : 1.85:1
Frame rate : 25.000 FPS
Color space : YUV
Chroma subsampling : 4:2:0
Bit depth : 8 bits
Scan type : Progressive
Compression mode : Lossy
Bits/(Pixel*Frame) : 0.240
Stream size : 1.16 GiB (79%)
Writing library : XviD 65
Audio #1
ID : 1
Format : AC-3
Format/Info : Audio Coding 3
Format settings, Endianness : Big
Codec ID : 2000
Duration : 1 h 49 min
Bit rate mode : Constant
Bit rate : 192 kb/s
Channel(s) : 2 channels
Channel positions : Front: L R
Sampling rate : 48.0 kHz
Frame rate : 31.250 FPS (1536 SPF)
Bit depth : 16 bits
Compression mode : Lossy
Stream size : 150 MiB (10%)
Alignment : Split accross interleaves
Interleave, duration : 40 ms (1.00 video frame)
Interleave, preload duratio : 500 ms
Title : ТВС: Олег Куценко и Елена Борзунова
Service kind : Complete Main
Audio #2
ID : 2
Format : AC-3
Format/Info : Audio Coding 3
Format settings, Endianness : Big
Codec ID : 2000
Duration : 1 h 49 min
Bit rate mode : Constant
Bit rate : 192 kb/s
Channel(s) : 2 channels
Channel positions : Front: L R
Sampling rate : 48.0 kHz
Frame rate : 31.250 FPS (1536 SPF)
Bit depth : 16 bits
Compression mode : Lossy
Stream size : 150 MiB (10%)
Alignment : Split accross interleaves
Interleave, duration : 40 ms (1.00 video frame)
Interleave, preload duratio : 500 ms
Title : Оригинальный (английский)
Service kind : Complete Main

Скриншот c названием фильма

Скриншоты

If your ratio falls below 0.3, you will not be able to download Torrents! More about the rating.

[erzsebet.pl].t612.torrent
Torrent: Registered   [ 2017-12-02 17:15 ]

Download .torrent

Download

15 KB

Status: checked
Completed: 16 times
Size: 1.46 GB
terms.php

#1

02-Dec-2017 17:15

[Profile]  [PM] 
Display posts:    

You cannot post new topics in this forum
You cannot reply to topics in this forum
You cannot edit your posts in this forum
You cannot delete your posts in this forum
You cannot vote in polls in this forum
You cannot attach files in this forum
You can download files in this forum
User agreement
For copyright holders
Advertise on this site

Скачайте на халяву через торрент на трекере erzsebet.pl

!ATTENTION!
The site does not give electronic versions of products, and is engaged only in a collecting and cataloguing of the references sent and published at a forum by our readers. If you are the legal owner of any submitted material and do not wish that the reference to it was in our catalogue, contact us and we shall immediately remove her. Files for an exchange on tracker are given by users of a site, and the administration does not bear the responsibility for their maintenance. The request to not fill in the files protected by copyrights, and also files of the illegal maintenance!