Ход королевой / Ход конём / Knight Moves (Карл Шенкель / Carl Schenkel) [1992, Германия, США, Канада, триллер, драма, криминал, детектив, DVDRip] MVO (ОРТ)

DL-List and Torrent activity
Size:  1.46 GB   |    Registered:  2 years 9 months   |    Completed:  16 times
Seeders:  10   Leechers:  1   Show peers in full details
 
   
 
 

erzsebet.org ®

Longevity:
2 years 9 months
Posts:
47596

[Quote] 

Ход королевой / Ход конём / Knight Moves
Год выпуска: 1992
Страна: Германия, США, Канада
Жанр: триллер, драма, криминал, детектив
Продолжительность: 01:51:41
Перевод: Профессиональный (многоголосый закадровый) - ОРТ
Субтитры: нет
Режиссер: Карл Шенкель / Carl Schenkel
В ролях: Кристофер Ламберт / Peter Sanderson, Дайан Лэйн / Kathy Sheppard, Том Скеррит / Capt. Frank Sedman, Дэниэл Болдуин / Det. Andy Wagner, Чарльз Бэйли-Гейтс / David Willerman-Мировая премьера: 16 января 1992-Описание: Питер Сандерсон - гроссмейстер. Он наделён способностью предвидеть ходы соперника. Но на этот раз его противник не шахматист. Коварный убийца играет с Питером изощрённую партию. Его фигуры - молодые женщины, которых он безжалостно убивает, и каждый неправильный ход ведёт к новому убийству.-Огромная благодарность:
Inko - видеоряд
pasific2013 - личная запись фильма с телеканала ОРТ через видеомагнитофон и оцифровка звука с видеокассеты.
JUSTKANT - синхронизация перевода.-ДАННЫЙ ПЕРЕВОД НА ТРЕКЕРЕ ПОЯВЛЯЕТСЯ ВПЕРВЫЕ.
На русский язык фильм озвучен по заказу Общественного Российского Телевидения.
Текст читают Владимир Вихров, Борис Быстров и Татьяна Васильева.-
Рейтинг

MPAA: R - Лицам до 17 лет обязательно присутствие взрослого.-Качество видео: DVDRip
Формат видео: AVI -> //Сэмпл//
Видео: XviD, 720x304 (2.35:1), 25.000 fps, 1666 kbps
Аудио:
1 - 48 khz, AC3 Dolby Digital, 2/0 (L,R) ch, ~192 kbps [ОРТ] VHSRip-ТВ

Информация о переводе

К большому сожалению по неизвестным причинам во время ТВ-записи был пропущен вот этот эпизод:
01:21:30 - 01:28:15
Поэтому здесь вставка MVO перевода из трекера.

MediaInfo

General
Complete name : D:\Ход королевой (ОРТ).avi
Format : AVI
Format/Info : Audio Video Interleave
File size : 1.46 GiB
Duration : 1 h 51 min
Overall bit rate : 1 868 kb/s
Movie name : Ход королевой / Knight Moves (ОРТ)
Director : JUSTKANT
Writing application : VirtualDubMod 1.5.10.3 (build 2550/release)
Copyright : На русский язык фильм озвучен по заказу ОРТ
Comment : Качество звука: VHSRipТВ (pasific2013)
Video
ID : 0
Format : MPEG-4 Visual
Format profile : Advanced [email protected]
Format settings, BVOP : 1
Format settings, QPel : No
Format settings, GMC : No warppoints
Format settings, Matrix : Default (MPEG)
Codec ID : XVID
Codec ID/Hint : XviD
Duration : 1 h 51 min
Bit rate : 1 666 kb/s
Width : 720 pixels
Height : 304 pixels
Display aspect ratio : 2.35:1
Frame rate : 25.000 FPS
Color space : YUV
Chroma subsampling : 4:2:0
Bit depth : 8 bits
Scan type : Progressive
Compression mode : Lossy
Bits/(Pixel*Frame) : 0.304
Stream size : 1.30 GiB (89%)
Writing library : XviD 1.2.0.dev47 (UTC 2006-11-01)
Audio
ID : 1
Format : AC-3
Format/Info : Audio Coding 3
Format settings, Endianness : Big
Codec ID : 2000
Duration : 1 h 51 min
Bit rate mode : Constant
Bit rate : 192 kb/s
Channel(s) : 2 channels
Channel positions : Front: L R
Sampling rate : 48.0 kHz
Frame rate : 31.250 FPS (1536 SPF)
Bit depth : 16 bits
Compression mode : Lossy
Stream size : 153 MiB (10%)
Alignment : Split accross interleaves
Interleave, duration : 40 ms (1.00 video frame)
Interleave, preload duratio : 500 ms
Title : ОРТ: Владимир Вихров, Борис Быстров и Татьяна Васильева
Service kind : Complete Main

Скриншот c названием фильма

Скриншоты

If your ratio falls below 0.3, you will not be able to download Torrents! More about the rating.

[erzsebet.pl].t616.torrent
Torrent: Registered   [ 2017-12-02 17:15 ]

Download .torrent

Download

15 KB

Status: checked
Completed: 16 times
Size: 1.46 GB
terms.php

#1

02-Dec-2017 17:15

[Profile]  [PM] 
Display posts:    

You cannot post new topics in this forum
You cannot reply to topics in this forum
You cannot edit your posts in this forum
You cannot delete your posts in this forum
You cannot vote in polls in this forum
You cannot attach files in this forum
You can download files in this forum
User agreement
For copyright holders
Advertise on this site

Скачайте на халяву через торрент на трекере erzsebet.pl

!ATTENTION!
The site does not give electronic versions of products, and is engaged only in a collecting and cataloguing of the references sent and published at a forum by our readers. If you are the legal owner of any submitted material and do not wish that the reference to it was in our catalogue, contact us and we shall immediately remove her. Files for an exchange on tracker are given by users of a site, and the administration does not bear the responsibility for their maintenance. The request to not fill in the files protected by copyrights, and also files of the illegal maintenance!