Татуировка / Татуировка моряка / Cyber Bandits / A Sailor's Tattoo (Эрик Флеминг / Erik Fleming) [1995, США, Фантастика, DVDRip] AVO (Сергей Визгунов) + Original Eng

DL-List and Torrent activity
Size:  1.48 GB   |    Registered:  2 years 9 months   |    Completed:  16 times
Seeders:  4   Leechers:  1   Show peers in full details
 
   
 
 

erzsebet.org ®

Longevity:
2 years 9 months
Posts:
47596

[Quote] 

Татуировка / Татуировка моряка / Cyber Bandits / A Sailor's Tattoo
«Welcome to cyberspace. Where danger is a virtual reality»
Страна: США
Жанр: Фантастика
Год выпуска: 1995
Продолжительность: 01:23:43
Перевод: Авторский (одноголосый закадровый) Сергей Визгунов
Субтитры: нет
Оригинальная аудиодорожка: английский
Режиссер: Эрик Флеминг / Erik Fleming
В ролях: Мартин Кемп, Александра Пол, Адам Энт, Грейс Джонс, Генри Гибсон, Джеймс Хонг, Нилс Аллен Стюарт, Роберт Хэйс, Крис Викс, Калику Ашарри, Катрин Дао, Ян Бирч, Барбара Энн Мур, Киана Том, Рон Девон
Описание: Моряк Джек Морис попадает на службу к мафиози Моргану Уэлсу. В одни прекрасный день Моргана покидает его очаровательная любовница Ребекка, прихватив с собой ни много ни мало диск, на котором записана информация о сверхсекретном оружии, владелец которого получит неограниченную власть над человечеством.
Влюбленный в Ребекку Джек вызывается помочь девушке продать диск за большие деньги. Но как вывезти его из страны? Беглецам приходит в голову идея: секретную информацию в цифровом виде можно поместить в… татуировку.
Доп. информация: Дорожка с С. Визгуновым синхронизирована и наложена ale_x2008 при помощи Sony Vegas и VirtualDubMod.
За оцифрованную с VHS дорожку благодарим - exsmo. Новый видеоряд - исходник - DVD9.
P.S. 00:00:54 - 00:01:54; 01:12:54 - 01:13:26 - вставки DVO.
Релиз
Сэмпл: https://yadi.sk/i/u-GAL4sp3Q4QFQ
Качество видео: DVDRip
Формат видео: AVI
Видео: XviD build 73, 704x528 (1.33:1), 25 fps, 2135 kbps avg, 0.23 bit/pixel
Аудио: AC3 Dolby Digital, 48000Hz 2/0 (L,R) ch (mono), 192.00 kbps avg
Аудио 2: AC3 Dolby Digital, 48000Hz 2/0 (L,R) ch, 192.00 kbps avg

MediaInfo

Татуировка - Cyber Bandits (by ale_x2008).avi
Format : AVI
Format/Info : Audio Video Interleave
File size : 1.48 GiB
Duration : 1 h 23 min
Overall bit rate : 2 534 kb/s
Movie name : Татуировка - Cyber Bandits (by ale_x2008)
Director : by ale_x2008
Writing application : VirtualDubMod 1.5.10.2 (build 2540/release)
Copyright : Edich2
Comment : erzsebet.org
Video
ID : 0
Format : MPEG-4 Visual
Format profile : Advanced [email protected]
Format settings, BVOP : 2
Format settings, QPel : No
Format settings, GMC : No warppoints
Format settings, Matrix : Custom
Codec ID : XVID
Codec ID/Hint : XviD
Duration : 1 h 23 min
Bit rate : 2 136 kb/s
Width : 704 pixels
Height : 528 pixels
Display aspect ratio : 4:3
Frame rate : 25.000 FPS
Color space : YUV
Chroma subsampling : 4:2:0
Bit depth : 8 bits
Scan type : Progressive
Compression mode : Lossy
Bits/(Pixel*Frame) : 0.230
Stream size : 1.25 GiB (84%)
Writing library : XviD 73
Audio #1
ID : 1
Format : AC-3
Format/Info : Audio Coding 3
Format settings, Endianness : Big
Codec ID : 2000
Duration : 1 h 23 min
Bit rate mode : Constant
Bit rate : 192 kb/s
Channel(s) : 2 channels
Channel positions : Front: L R
Sampling rate : 48.0 kHz
Frame rate : 31.250 FPS (1536 spf)
Bit depth : 16 bits
Compression mode : Lossy
Stream size : 115 MiB (8%)
Alignment : Split accross interleaves
Interleave, duration : 40 ms (1.00 video frame)
Interleave, preload duratio : 500 ms
Service kind : Complete Main
Audio #2
ID : 2
Format : AC-3
Format/Info : Audio Coding 3
Format settings, Endianness : Big
Codec ID : 2000
Duration : 1 h 23 min
Bit rate mode : Constant
Bit rate : 192 kb/s
Channel(s) : 2 channels
Channel positions : Front: L R
Sampling rate : 48.0 kHz
Frame rate : 31.250 FPS (1536 spf)
Bit depth : 16 bits
Compression mode : Lossy
Stream size : 115 MiB (8%)
Alignment : Split accross interleaves
Interleave, duration : 40 ms (1.00 video frame)
Interleave, preload duratio : 500 ms
Service kind : Complete Main

Скриншоты


If your ratio falls below 0.3, you will not be able to download Torrents! More about the rating.

[erzsebet.pl].t619.torrent
Torrent: Registered   [ 2017-12-02 17:15 ]

Download .torrent

Download

15 KB

Status: checked
Completed: 16 times
Size: 1.48 GB
terms.php

#1

02-Dec-2017 17:15

[Profile]  [PM] 
Display posts:    

You cannot post new topics in this forum
You cannot reply to topics in this forum
You cannot edit your posts in this forum
You cannot delete your posts in this forum
You cannot vote in polls in this forum
You cannot attach files in this forum
You can download files in this forum
User agreement
For copyright holders
Advertise on this site

Скачайте на халяву через торрент на трекере erzsebet.pl

!ATTENTION!
The site does not give electronic versions of products, and is engaged only in a collecting and cataloguing of the references sent and published at a forum by our readers. If you are the legal owner of any submitted material and do not wish that the reference to it was in our catalogue, contact us and we shall immediately remove her. Files for an exchange on tracker are given by users of a site, and the administration does not bear the responsibility for their maintenance. The request to not fill in the files protected by copyrights, and also files of the illegal maintenance!