Санитары-хулиганы / Безалаберные / Disorderlies (Майкл Шульц / Michael Schultz) [1987, США, комедия, DVDRip-AVC] 2X AVO (Визгунов, Дольский) + Sub Eng + Original Eng

DL-List and Torrent activity
Size:  2.1 GB   |    Registered:  2 years 9 months   |    Completed:  16 times
Seeders:  2   Leechers:  2   Show peers in full details
 
   
 
 

erzsebet.org ®

Longevity:
2 years 9 months
Posts:
47596

[Quote] 

Санитары-хулиганы / Безалаберные / Disorderlies
Страна: США
Жанр: комедия
Год выпуска: 1987
Продолжительность: 1:26:11
Перевод 1: Авторский (одноголосый закадровый) Сергея Визгунова
Перевод 2: Авторский (одноголосый закадровый) Андрея Дольского
Субтитры: английские
Оригинальная аудиодорожка: английский
Режиссер: Майкл Шульц /Michael Schultz/
В ролях: Фэт Бойз /The Fat Boys/, Тони Плана /Tony Plana/, Ральф Беллами /Ralph Bellamy/, Энтони Гири /Anthony Geary/...
Рецензия Михаила Иванова: Богатый дядюшка (Беллами) дышит на ладан, а мечтающий завладеть его миллионным наследством племянник (Гири) нанимает трех на редкость растяпистых медбратьев, чтобы те старика быстро свели в могилу. Три толсяка из шоу-группы "Фэт Бойз" натужно пытаются смешить нас дурацкими гэгами. Куда лучше они поют "рэп".
Доп. информация: исходник от Simpun; дорогу Визгунова оцифровал и подготовил karlll
~Сэмпл~
Качество видео: DVDRip-AVC
Формат видео: MKV
Видео: MPEG4 (H264) 704x400 23.976fps 2906Kbps
Аудио 1: AC3 48KHz 2ch 192Kbps - Визгунов
Аудио 2: AC3 48KHz 2ch 192Kbps - Дольский
Аудио 3: AC3 48KHz 1ch 192Kbps - анг
Формат субтитров: softsub (SRT)

MediaInfo

Формат : Matroska
Версия формата : Version 2
Размер файла : 2,10 Гбайт
Продолжительность : 1 ч. 26 м.
Общий поток : 3485 Кбит/сек
Дата кодирования : UTC 2017-11-09 15:09:23
Программа кодирования : mkvmerge v6.9.1 ('Blue Panther') 32bit built on Apr 18 2014 18:15:44
Библиотека кодирования : libebml v1.3.0 + libmatroska v1.4.1
Видео
Идентификатор : 1
Формат : AVC
Формат/Информация : Advanced Video Codec
Профиль формата : [email protected]
Параметр CABAC формата : Да
Параметр ReFrames формата : 7 кадров
Идентификатор кодека : V_MPEG4/ISO/AVC
Продолжительность : 1 ч. 26 м.
Битрейт : 2906 Кбит/сек
Ширина : 704 пикселя
Высота : 400 пикселей
Соотношение сторон : 16:9
Режим частоты кадров : Постоянный
Частота кадров : 23,976 кадра/сек
Цветовое пространство : YUV
Субдискретизация насыщенности : 4:2:0
Битовая глубина : 8 бит
Тип развёртки : Прогрессивная
Бит/(Пиксели*Кадры) : 0.430
Размер потока : 1,71 Гбайт (81%)
Заголовок : Disorderlies (1987)
Библиотека кодирования : x264 core 148 r2638 7599210
Настройки программы : cabac=1 / ref=7 / deblock=1:-1:-1 / analyse=0x3:0x113 / me=umh / subme=9 / psy=1 / psy_rd=1.00:0.20 / mixed_ref=1 / me_range=24 / chroma_me=1 / trellis=2 / 8x8dct=1 / cqm=0 / deadzone=21,11 / fast_pskip=0 / chroma_qp_offset=-3 / threads=6 / lookahead_threads=1 / sliced_threads=0 / nr=0 / decimate=0 / interlaced=0 / bluray_compat=0 / constrained_intra=0 / bframes=7 / b_pyramid=2 / b_adapt=2 / b_bias=0 / direct=3 / weightb=1 / open_gop=0 / weightp=2 / keyint=250 / keyint_min=23 / scenecut=40 / intra_refresh=0 / rc_lookahead=50 / rc=2pass / mbtree=1 / bitrate=2906 / ratetol=1.0 / qcomp=0.60 / qpmin=0 / qpmax=69 / qpstep=4 / cplxblur=20.0 / qblur=0.5 / vbv_maxrate=14000 / vbv_bufsize=14000 / nal_hrd=none / filler=0 / ip_ratio=1.40 / aq=1:1.00
Язык : English
Default : Да
Forced : Нет
Аудио #1
Идентификатор : 2
Формат : AC-3
Формат/Информация : Audio Coding 3
Расширение режима : CM (complete main)
Параметр Endianness формата : Big
Идентификатор кодека : A_AC3
Продолжительность : 1 ч. 26 м.
Вид битрейта : Постоянный
Битрейт : 192 Кбит/сек
Каналы : 2 канала
Расположение каналов : Front: L R
Частота : 48,0 КГц
Битовая глубина : 16 бит
Метод сжатия : С потерями
Размер потока : 118 Мбайт (6%)
Заголовок : Визгунов
Язык : Russian
Default : Да
Forced : Нет
Аудио #2
Идентификатор : 3
Формат : AC-3
Формат/Информация : Audio Coding 3
Расширение режима : CM (complete main)
Параметр Endianness формата : Big
Идентификатор кодека : A_AC3
Продолжительность : 1 ч. 26 м.
Вид битрейта : Постоянный
Битрейт : 192 Кбит/сек
Каналы : 2 канала
Расположение каналов : Front: L R
Частота : 48,0 КГц
Битовая глубина : 16 бит
Метод сжатия : С потерями
Размер потока : 118 Мбайт (6%)
Заголовок : Дольский
Язык : Russian
Default : Нет
Forced : Нет
Аудио #3
Идентификатор : 4
Формат : AC-3
Формат/Информация : Audio Coding 3
Расширение режима : CM (complete main)
Параметр Endianness формата : Big
Идентификатор кодека : A_AC3
Продолжительность : 1 ч. 26 м.
Вид битрейта : Постоянный
Битрейт : 192 Кбит/сек
Каналы : 1 канал
Расположение каналов : Front: C
Частота : 48,0 КГц
Битовая глубина : 16 бит
Метод сжатия : С потерями
Размер потока : 118 Мбайт (6%)
Заголовок : english
Язык : English
Default : Нет
Forced : Нет
Текст
Идентификатор : 5
Формат : UTF-8
Идентификатор кодека : S_TEXT/UTF8
Идентификатор кодека/Информация : UTF-8 Plain Text
Заголовок : english
Язык : English
Default : Нет
Forced : Нет

Скриншоты

If your ratio falls below 0.3, you will not be able to download Torrents! More about the rating.

[erzsebet.pl].t623.torrent
Torrent: Registered   [ 2017-12-02 17:13 ]

Download .torrent

Download

11 KB

Status: checked
Completed: 16 times
Size: 2.1 GB
terms.php

#1

02-Dec-2017 17:13

[Profile]  [PM] 
Display posts:    

You cannot post new topics in this forum
You cannot reply to topics in this forum
You cannot edit your posts in this forum
You cannot delete your posts in this forum
You cannot vote in polls in this forum
You cannot attach files in this forum
You can download files in this forum
User agreement
For copyright holders
Advertise on this site

Скачайте на халяву через торрент на трекере erzsebet.pl

!ATTENTION!
The site does not give electronic versions of products, and is engaged only in a collecting and cataloguing of the references sent and published at a forum by our readers. If you are the legal owner of any submitted material and do not wish that the reference to it was in our catalogue, contact us and we shall immediately remove her. Files for an exchange on tracker are given by users of a site, and the administration does not bear the responsibility for their maintenance. The request to not fill in the files protected by copyrights, and also files of the illegal maintenance!