Любовники моей мамы / Kochankowie mojej mamy (Радослав Пивоварский / Radoslaw Piwowarski) [1986, Польша, драма, DVB] [Советская прокатная копия] Dub (Мосфильм)

DL-List and Torrent activity
Size:  1.2 GB   |    Registered:  2 years 9 months   |    Completed:  16 times
Seeders:  5   Leechers:  1   Show peers in full details
 
   
 
 

erzsebet.org ®

Longevity:
2 years 9 months
Posts:
47596

[Quote] 

Любовники моей мамы / Kochankowie mojej mamy [Советская прокатная копия]- Страна: Польша
Жанр: драма
Год выпуска: 1986
Продолжительность: 01:25:26-Перевод: Профессиональный (дублированный) - Киностудия "Мосфильм"
Субтитры: нет-Режиссер: Радослав Пивоварский / Radoslaw Piwowarski
В ролях: Кристина Янда, Ханна Скаржанка, Кшиштоф Залеский, Богдан Смолен, Здзислав Кузьняр, Ювита Мендликовская, Станислав Брудны- | Релиз: -Описание: О матери и сыне-подростке. Кристина Трачик, оставшись без мужа, одна воспитывает одиннадцатилетнего сына, но часто срывается — пьёт, приводит домой мужчин, не брезгует «таблетками». Она ищет поддержки у своих любовников, хотя больше всех любит своего 11-летнего сына, ради которого готова на всё. Её сын Рафал, не по возрасту серьёзный, рассудительный ребёнок, старается изо всех сил помочь матери. Рафала по решению суда отправляют в детский дом, а Кристину — в тюрьму за финансовые махинации на работе. Несмотря на многие жизненные трудности, мальчик продолжает бороться за свое счастье, чтобы жить с любимой мамой.-Семпл: http://sendfile.su/1375967-Тип релиза: DVB
Контейнер: MPG
Видео: 704x576 (4:3) @ 768x576, 25.000 fps, MPEG-2 Video, ~1772 Kbps, 0.175 bits/pixel
Аудио: Русский, 48.0 KHz, MPEG-1 Audio layer 2, 2 ch, 192 Kbps

MediaInfo

General
Complete name : Любовники моей мамы 1986 Dub Мосфильм.mpg
Format : MPEG-PS
File size : 1.20 GiB
Duration : 1 h 25 min
Overall bit rate mode : Variable
Overall bit rate : 2 004 kb/s
Video
ID : 224 (0xE0)
Format : MPEG Video
Format version : Version 2
Format profile : [email protected]
Format settings : CustomMatrix / BVOP
Format settings, BVOP : Yes
Format settings, Matrix : Custom
Format settings, GOP : M=3, N=24
Duration : 1 h 25 min
Bit rate mode : Variable
Bit rate : 1 772 kb/s
Maximum bit rate : 15.0 Mb/s
Width : 704 pixels
Height : 576 pixels
Display aspect ratio : 4:3
Frame rate : 25.000 FPS
Standard : PAL
Color space : YUV
Chroma subsampling : 4:2:0
Bit depth : 8 bits
Compression mode : Lossy
Bits/(Pixel*Frame) : 0.175
Time code of first frame : 00:00:00:00
Time code source : Group of pictures header
GOP, Open/Closed : Open
GOP, Open/Closed of first frame : Closed
Stream size : 1.06 GiB (88%)
Audio
ID : 192 (0xC0)
Format : MPEG Audio
Format version : Version 1
Format profile : Layer 2
Duration : 1 h 25 min
Bit rate mode : Constant
Bit rate : 192 kb/s
Channel(s) : 2 channels
Sampling rate : 48.0 kHz
Compression mode : Lossy
Stream size : 117 MiB (10%)

If your ratio falls below 0.3, you will not be able to download Torrents! More about the rating.

[erzsebet.pl].t625.torrent
Torrent: Registered   [ 2017-12-02 17:13 ]

Download .torrent

Download

12 KB

Status: checked
Completed: 16 times
Size: 1.2 GB
terms.php

#1

02-Dec-2017 17:13

[Profile]  [PM] 
Display posts:    

You cannot post new topics in this forum
You cannot reply to topics in this forum
You cannot edit your posts in this forum
You cannot delete your posts in this forum
You cannot vote in polls in this forum
You cannot attach files in this forum
You can download files in this forum
User agreement
For copyright holders
Advertise on this site

Скачайте на халяву через торрент на трекере erzsebet.pl

!ATTENTION!
The site does not give electronic versions of products, and is engaged only in a collecting and cataloguing of the references sent and published at a forum by our readers. If you are the legal owner of any submitted material and do not wish that the reference to it was in our catalogue, contact us and we shall immediately remove her. Files for an exchange on tracker are given by users of a site, and the administration does not bear the responsibility for their maintenance. The request to not fill in the files protected by copyrights, and also files of the illegal maintenance!