Крепость / Последний отсчет / Фортресс / Fortress (Стюарт Гордон / Stuart Gordon) [1992, США, Австралия, фантастика, боевик, триллер, BDRip] AVO (Андрей Гаврилов) + AVO (Леонид Володарский) + AVO (Василий Горчаков) + AVO (Юрий Сербин) + DUB

DL-List and Torrent activity
Size:  1.74 GB   |    Registered:  2 years 9 months   |    Completed:  16 times
Seeders:  3   Leechers:  1   Show peers in full details
 
   
 
 

erzsebet.org ®

Longevity:
2 years 9 months
Posts:
47596

[Quote] 

Крепость / Последний отсчет / Фортресс / Fortress
Страна: США, Австралия
Жанр: фантастика, боевик, триллер
Год выпуска: 1992
Продолжительность: 01:30:08
Перевод: Авторский (одноголосый закадровый) Андрей Гаврилов
Перевод 2: Авторский (одноголосый закадровый) Леонид Володарский
Перевод 3: Авторский (одноголосый закадровый) Василий Горчаков
Перевод 4: Авторский (одноголосый закадровый) Юрий Сербин (отдельно)
Перевод 5: Профессиональный (дублированный) (отдельно)
Субтитры: нет
Режиссер: Стюарт Гордон / Stuart Gordon
В ролях: Кристофер Ламберт, Кертвуд Смит, Лорин Локлин, Клифтон Коллинз мл., Линкольн Килпэтрик, Джеффри Комбс, Том Таулз, Вернон Уэллс, Кэролин Пёрди-Гордон
Описание: В 2017 году жизнь на планете стала жестокой и крайне тяжелой. Количество жителей постоянно увеличивается, а природные ресурсы тем временем уже на исходе. В результате сложившейся ситуации был введет строгий режим и новый закон, который гласит, что женщина может иметь только одного ребенка. Бренник со своей женой Карен после смерти первенца решаются нарушить закон и теперь ждут своего второго ребенка. Но их вскоре заключают в Крепость - самую жестокую тюрьму с максимальной степенью защиты, из которой выбраться еще никому не удавалось. Бренник после чудовищных пыток принимает решение совершить побег.
Сэмпл: http://multi-up.com/1177612
Качество видео: BDRip (Исходник Fortress.1992.1080p.Bluray.US.AVC.Remux.HDCLUB)
Формат видео: AVI
Видео: XviD 73, 704x400, (16:9), 23,976 fps, 1568 Кбит/с, 8 бит, 0.23 bit/pixel
Аудио: Русский (АС3, 2 ch (Front: L R), 48,0 KHz, 224 Kbps) Андрей Гаврилов
Аудио 2: Русский (АС3, 2 ch (Front: L R), 48,0 KHz, 192 Kbps) Леонид Володарский
Аудио 3: Русский (АС3, 2 ch (Front: L R), 48,0 KHz, 192 Kbps) Василий Горчаков
Аудио 4: Русский (АС3, 2 ch (Front: L R), 48,0 KHz, 224 Kbps) Юрий Сербин (отдельно)
Аудио 5: Русский (АС3, 2 ch (Front: L R), 48,0 KHz, 192 Kbps) Дублированный (отдельно)

MediaInfo

Общее
Полное имя : D:\Видеофильмы\В и д е о\Крепость_(триллер, боевик, 1992 год)_Leonard_Lew\Крепость_(триллер, боевик, 1992 год)_Leonard_Lew.avi
Формат : AVI
Формат/Информация : Audio Video Interleave
Размер файла : 1,46 Гбайт
Продолжительность : 1 ч. 35 м.
Общий поток : 2195 Кбит/сек
Программа кодирования : VirtualDubMod 1.5.10.2 (build 2540/release)
Библиотека кодирования : VirtualDubMod build 2540/release
Видео
Идентификатор : 0
Формат : MPEG-4 Visual
Профиль формата : Advanced [email protected]
Параметр BVOP формата : 2
Параметр QPel формата : Нет
Параметр GMC формата : Без точки перехода
Параметр матрицы формата : Выборочная
Идентификатор кодека : XVID
Идентификатор кодека/Подсказка : XviD
Продолжительность : 1 ч. 35 м.
Битрейт : 1568 Кбит/сек
Ширина : 720 пикселей
Высота : 400 пикселей
Соотношение сторон : 16:9
Частота кадров : 23,976 (23976/1000) кадра/сек
Цветовое пространство : YUV
Субдискретизация насыщенности : 4:2:0
Битовая глубина : 8 бит
Тип развёртки : Прогрессивная
Метод сжатия : С потерями
Бит/(Пиксели*Кадры) : 0.227
Размер потока : 1,04 Гбайт (71%)
Библиотека кодирования : XviD 73
Аудио #1
Идентификатор : 1
Формат : AC-3
Формат/Информация : Audio Coding 3
Расширение режима : CM (complete main)
Параметр Endianness формата : Big
Идентификатор кодека : 2000
Продолжительность : 1 ч. 35 м.
Вид битрейта : Постоянный
Битрейт : 224 Кбит/сек
Каналы : 2 канала
Расположение каналов : Front: L R
Частота : 48,0 КГц
Частота кадров : 31,250 кадров/сек (1536 spf)
Метод сжатия : С потерями
Размер потока : 152 Мбайт (10%)
Выравнивание : Разделение по промежуткам
Продолжительность промежутка : 42 мс. (1,00 видеокадр)
Время предзагрузки промежутка : 500 мс.
Аудио #2
Идентификатор : 2
Формат : AC-3
Формат/Информация : Audio Coding 3
Расширение режима : CM (complete main)
Параметр Endianness формата : Big
Идентификатор кодека : 2000
Продолжительность : 1 ч. 35 м.
Вид битрейта : Постоянный
Битрейт : 192 Кбит/сек
Каналы : 2 канала
Расположение каналов : Front: L R
Частота : 48,0 КГц
Частота кадров : 31,250 кадров/сек (1536 spf)
Метод сжатия : С потерями
Размер потока : 131 Мбайт (9%)
Выравнивание : Разделение по промежуткам
Продолжительность промежутка : 42 мс. (1,00 видеокадр)
Время предзагрузки промежутка : 500 мс.
Аудио #3
Идентификатор : 3
Формат : AC-3
Формат/Информация : Audio Coding 3
Расширение режима : CM (complete main)
Параметр Endianness формата : Big
Идентификатор кодека : 2000
Продолжительность : 1 ч. 35 м.
Вид битрейта : Постоянный
Битрейт : 192 Кбит/сек
Каналы : 2 канала
Расположение каналов : Front: L R
Частота : 48,0 КГц
Частота кадров : 31,250 кадров/сек (1536 spf)
Метод сжатия : С потерями
Размер потока : 131 Мбайт (9%)
Выравнивание : Разделение по промежуткам
Продолжительность промежутка : 42 мс. (1,00 видеокадр)
Время предзагрузки промежутка : 500 мс.

Скриншот c названием фильма

Скриншоты

If your ratio falls below 0.3, you will not be able to download Torrents! More about the rating.

[erzsebet.pl].t626.torrent
Torrent: Registered   [ 2017-12-02 17:15 ]

Download .torrent

Download

18 KB

Status: checked
Completed: 16 times
Size: 1.74 GB
terms.php

#1

02-Dec-2017 17:15

[Profile]  [PM] 
Display posts:    

You cannot post new topics in this forum
You cannot reply to topics in this forum
You cannot edit your posts in this forum
You cannot delete your posts in this forum
You cannot vote in polls in this forum
You cannot attach files in this forum
You can download files in this forum
User agreement
For copyright holders
Advertise on this site

Скачайте на халяву через торрент на трекере erzsebet.pl

!ATTENTION!
The site does not give electronic versions of products, and is engaged only in a collecting and cataloguing of the references sent and published at a forum by our readers. If you are the legal owner of any submitted material and do not wish that the reference to it was in our catalogue, contact us and we shall immediately remove her. Files for an exchange on tracker are given by users of a site, and the administration does not bear the responsibility for their maintenance. The request to not fill in the files protected by copyrights, and also files of the illegal maintenance!