Вверх и вниз по Беверли-Хиллз / Без гроша в Беверли Хиллз / Down and Out in Beverly Hills (Пол Мазурски / Paul Mazursky) [1986, США, комедия, WEB-DLRip] MVO (ОРТ)

DL-List and Torrent activity
Size:  1.46 GB   |    Registered:  2 years 9 months   |    Completed:  16 times
Seeders:  6  
 
   
 
 

erzsebet.org ®

Longevity:
2 years 9 months
Posts:
47596

[Quote] 

Вверх и вниз по Беверли-Хиллз / Без гроша в Беверли Хиллз / Down and Out in Beverly Hills
Год выпуска: 1986
Страна: США
Жанр: комедия
Продолжительность: 01:43:20
Перевод: Профессиональный (многоголосый закадровый) - ОРТ
Субтитры: нет
Режиссер: Пол Мазурски / Paul Mazursky
В ролях: Ник Нолти / Jerry Baskin, Бетт Миддлер / Barbara Whiteman, Ричард Дрейфусс / Dave Whiteman, Литтл Ричард / Orvis Goodnight, Трейси Нельсон / Jenny Whiteman, Элизабет Пенья / Carmen, Эван Ричардс / Max Whiteman, Фелтон Перри / Al, Элой Касадос / Tom-Tom, Майкл Яма / Nagamichi, Доналд Ф. Мюик / Dr. Von Zimmer, Пол Мазурски / Sidney Waxman-Мировая премьера: 31 января 1986-Описание: Дэйв Уайтмен, его жена Барбара и их двое детей живут в красивом доме самого престижного квартала в Америке - Беверли Хиллз. У Дэйва Уайтмена есть свой бизнес - он производитель вешалок для одежды. Но, несмотря на богатство, в жизни Дэйва чего-то не хватает. Барбара, супруга Дэйва, полностью поглощена совершенствованием своей внешности и физической формы. В расписании ее дня обычно стоят сеансы массажа, занятия йогой и аэробикой. Она с удовольствием заботится о своей собаке по кличке Матисс, но вот для мужа и детей у нее нет времени. Однажды на аллее, ведущей к их вилле, появляется бомж. Имя этой ходячей неприятности - Джерри Баскин. Этот человек пытается утопиться в бассейне Уайтменов. Выловленный главой семьи, бомж без лишних уговоров вселяется в дом, становится домашним любимцем и изменяет жизнь Уайтменов навсегда....-Огромная благодарность:
Sergunka172 - видеоряд
shocker80 - личная запись фильма с телеканала ОРТ через видеомагнитофон и оцифровка звука с видеокассеты.
JUSTKANT - синхронизация перевода.-ДАННЫЙ ПЕРЕВОД НА ТРЕКЕРЕ ПОЯВЛЯЕТСЯ ВПЕРВЫЕ.
На русский язык фильм озвучен кинокомпанией "Селена Интернешнл" по заказу Общественного Российского Телевидения.
Текст читают Владимир Антоник, Рудольф Панков и Ирина Савина.-
Рейтинг

MPAA: R - Лицам до 17 лет обязательно присутствие взрослого.-Качество видео: WEB-DLRip
Формат видео: AVI -> //Сэмпл//
Видео: XviD, 704x384 (1.85:1), 23.976 fps, 1823 kbps
Аудио:
1 - 48 khz, AC3 Dolby Digital, 2/0 (L,R) ch, ~192 kbps [ОРТ] VHSRip-ТВ

MediaInfo

General
Complete name : D:\Вверх и вниз по Беверли Хиллз (ОРТ).avi
Format : AVI
Format/Info : Audio Video Interleave
File size : 1.46 GiB
Duration : 1 h 43 min
Overall bit rate : 2 024 kb/s
Movie name : Вверх и вниз по Беверли Хиллз / Без гроша в Беверли Хиллз / Down and Out in Beverly Hills (ОРТ)
Director : JUSTKANT
Writing application : VirtualDubMod 1.5.10.3 (build 2550/release)
Copyright : На русский язык фильм озвучен кинокомпанией "Селена Интернешнл" по заказу ОРТ
Comment : Качество звука: VHSRipТВ (shocker80)
Video
ID : 0
Format : MPEG-4 Visual
Format profile : Advanced [email protected]
Format settings, BVOP : 1
Format settings, QPel : No
Format settings, GMC : No warppoints
Format settings, Matrix : Custom
Codec ID : XVID
Codec ID/Hint : XviD
Duration : 1 h 43 min
Bit rate : 1 823 kb/s
Width : 704 pixels
Height : 384 pixels
Display aspect ratio : 1.85:1
Frame rate : 23.976 (24000/1001) FPS
Color space : YUV
Chroma subsampling : 4:2:0
Bit depth : 8 bits
Scan type : Progressive
Compression mode : Lossy
Bits/(Pixel*Frame) : 0.281
Stream size : 1.32 GiB (90%)
Writing library : XviD 73
Audio
ID : 1
Format : AC-3
Format/Info : Audio Coding 3
Format settings, Endianness : Big
Codec ID : 2000
Duration : 1 h 43 min
Bit rate mode : Constant
Bit rate : 192 kb/s
Channel(s) : 2 channels
Channel positions : Front: L R
Sampling rate : 48.0 kHz
Frame rate : 31.250 FPS (1536 SPF)
Bit depth : 16 bits
Compression mode : Lossy
Stream size : 142 MiB (9%)
Alignment : Split accross interleaves
Interleave, duration : 42 ms (1.00 video frame)
Interleave, preload duratio : 500 ms
Title : ОРТ: Владимир Антоник, Рудольф Панков и Ирина Савина
Service kind : Complete Main

Скриншот c названием фильма

Скриншоты

If your ratio falls below 0.3, you will not be able to download Torrents! More about the rating.

[erzsebet.pl].t627.torrent
Torrent: Registered   [ 2017-12-02 17:13 ]

Download .torrent

Download

15 KB

Status: checked
Completed: 16 times
Size: 1.46 GB
terms.php

#1

02-Dec-2017 17:13

[Profile]  [PM] 
Display posts:    

You cannot post new topics in this forum
You cannot reply to topics in this forum
You cannot edit your posts in this forum
You cannot delete your posts in this forum
You cannot vote in polls in this forum
You cannot attach files in this forum
You can download files in this forum
User agreement
For copyright holders
Advertise on this site

Скачайте на халяву через торрент на трекере erzsebet.pl

!ATTENTION!
The site does not give electronic versions of products, and is engaged only in a collecting and cataloguing of the references sent and published at a forum by our readers. If you are the legal owner of any submitted material and do not wish that the reference to it was in our catalogue, contact us and we shall immediately remove her. Files for an exchange on tracker are given by users of a site, and the administration does not bear the responsibility for their maintenance. The request to not fill in the files protected by copyrights, and also files of the illegal maintenance!