Золотой ребёнок / The Golden Child (Майкл Ритчи / Michael Ritchie) [1986, США, боевик, приключения, комедия, фэнтези, WEB-DLRip] MVO (Россия) + MVO (СТС) + MVO (ТВЦ)

DL-List and Torrent activity
Size:  1.44 GB   |    Registered:  2 years 9 months   |    Completed:  16 times
Seeders:  7  
 
   
 
 

erzsebet.org ®

Longevity:
2 years 9 months
Posts:
47596

[Quote] 

Золотой ребёнок / The Golden Child-Не просто мальчик.
Самый удивительный мальчик на свете.
Чтобы его разыскать, нужен не просто сыщик.
Самый обаятельный сыщик на свете.
Вы знаете, как его зовут.
- Год выпуска: 1986
Страна: США
Жанр: боевик, приключения, комедия, фэнтези
Продолжительность: 01:33:34
Перевод: Профессиональный (многоголосый закадровый) - Россия
Перевод 2: Профессиональный (многоголосый закадровый) - СТС
Перевод 3: Профессиональный (многоголосый закадровый) - ТВ-Центр
Субтитры: нет
Режиссер: Майкл Ритчи / Michael Ritchie
В ролях: Эдди Мёрфи (Chandler Jarrell), Дж. Л. Рит (The Golden Child), Чарльз Дэнс (Sardo Numspa), Шарлотта Льюис (Kee Nang), Виктор Вонг (The Old Man), Рэндал "Текс" Кобб (Til), Джеймс Хонг (Doctor Hong), Шакти (Kala), Тау Лого (Yu), Тайгер Чун Ли (Khan)-Мировая премьера: 12 декабря 1986-Описание: Через каждую тысячу поколений на свет появляется идеальный ребенок, дитя, наделенное магической силой, чье предназначение — нести добро миру. Силы зла похитили ребенка… Теперь важнее всего на свете — найти его! Древний оракул Нечунг предсказал, что спасти Золотого ребенка сможет только избранный человек. Согласно предсказанию, это должен быть отважный человек с чистой душой. Под это определение подходит только один смертный — Чендлер из Лос-Анджелеса. Он должен выполнить свою миссию, отвоевать у сил зла Золотого ребенка и спасти мир…-Исходник видео: WEB-DL 1080p, найденный в сети.-Благодарности:
pasific2013 - личная запись фильма с телеканала Россия в 2003 году через видеомагнитофон и оцифровка звука с видеокассеты.
mixaiil77 - личная запись фильма с телеканала СТС в середине 2010-х годов через спутниковое телевидение.
Home Video - личная запись фильма с телеканала ТВЦ в конце 90-х годов через видеомагнитофон и оцифровка звука с видеокассеты.
JUSTKANT - синхронизация переводов.-ДАННЫЕ ПЕРЕВОДЫ НА ТРЕКЕРЕ ПОЯВЛЯЮТСЯ ВПЕРВЫЕ!.
На русский язык фильм озвучен по заказу телеканала "Россия" в 2003 году.
Текст читают Дмитрий Полонский, Александр Быков и Галина Исхакова
На русский язык фильм озвучен по заказу телеканала СТС.
Текст читают Александр Клюквин, Александр Груздев и Ольга Зубкова.
На русский язык фильм озвучен по заказу телеканала ТВ-Центр.
Текст читают Александр Клюквин, Виктор Петров и Людмила Ильина.-
Рейтинг

MPAA: PG-13 - Детям до 13 лет просмотр не желателен.-Качество видео: WEB-DLRip
Формат видео: AVI -> //Сэмпл//
Видео: XviD, 720x400 (16:9), 23.976 fps, 1603 kbps avg
Аудио:
1 - 48 khz, AC3 Dolby Digital, 2/0 (L,R) ch, ~192 kbps [Россия] VHSRip-ТВ
2 - 48 khz, AC3 Dolby Digital, 2/0 (L,R) ch, ~192 kbps [СТС] SATRip
3 - 48 khz, AC3 Dolby Digital, 2/0 (L,R) ch, ~192 kbps [ТВ-Центр] VHSRip-ТВ-Обновление релиза от 07.11.2017. Причина:
Перевод Премьер Видео Фильм заменён на ещё один раритетный перевод с телеканала Россия.
Просьба перескачать торрент!

MediaInfo

General
Complete name : D:\Золотой ребёнок (Россия + СТС + ТВЦ).avi
Format : AVI
Format/Info : Audio Video Interleave
File size : 1.44 GiB
Duration : 1 h 33 min
Overall bit rate : 2 198 kb/s
Movie name : Золотой ребёнок / The Golden Child (Россия + СТС + ТВЦ)
Director : JUSTKANT
Writing application : VirtualDubMod 1.5.10.3 (build 2550/release)
Copyright : На русский язык фильм озвучен по заказу телеканала "Россия" в 2003 году
Comment : Качество звука: Россия - VHSRipТВ (pasific2013), СТС - SATRip (mixaiil77) и ТВЦ - VHSRipТВ (Home Video)
Video
ID : 0
Format : MPEG-4 Visual
Format profile : Advanced [email protected]
Format settings, BVOP : 1
Format settings, QPel : No
Format settings, GMC : No warppoints
Format settings, Matrix : Custom
Codec ID : XVID
Codec ID/Hint : XviD
Duration : 1 h 33 min
Bit rate : 1 603 kb/s
Width : 720 pixels
Height : 400 pixels
Display aspect ratio : 16:9
Frame rate : 23.976 (24000/1001) FPS
Original frame rate : 23.976 (23976/1000) FPS
Color space : YUV
Chroma subsampling : 4:2:0
Bit depth : 8 bits
Scan type : Progressive
Compression mode : Lossy
Bits/(Pixel*Frame) : 0.232
Stream size : 1.05 GiB (73%)
Writing library : XviD 1.2.1 (UTC 2008-12-04)
Audio #1
ID : 1
Format : AC-3
Format/Info : Audio Coding 3
Format settings, Endianness : Big
Codec ID : 2000
Duration : 1 h 33 min
Bit rate mode : Constant
Bit rate : 192 kb/s
Channel(s) : 2 channels
Channel positions : Front: L R
Sampling rate : 48.0 kHz
Frame rate : 31.250 FPS (1536 SPF)
Bit depth : 16 bits
Compression mode : Lossy
Stream size : 128 MiB (9%)
Alignment : Split accross interleaves
Interleave, duration : 42 ms (1.00 video frame)
Interleave, preload duratio : 500 ms
Title : Россия: Дмитрий Полонский, Александр Быков и Галина Исхакова
Service kind : Complete Main
Audio #2
ID : 2
Format : AC-3
Format/Info : Audio Coding 3
Format settings, Endianness : Big
Codec ID : 2000
Duration : 1 h 33 min
Bit rate mode : Constant
Bit rate : 192 kb/s
Channel(s) : 2 channels
Channel positions : Front: L R
Sampling rate : 48.0 kHz
Frame rate : 31.250 FPS (1536 SPF)
Bit depth : 16 bits
Compression mode : Lossy
Stream size : 128 MiB (9%)
Alignment : Split accross interleaves
Interleave, duration : 42 ms (1.00 video frame)
Interleave, preload duratio : 500 ms
Title : СТС: Александр Клюквин, Александр Груздев и Ольга Зубкова
Service kind : Complete Main
Audio #3
ID : 3
Format : AC-3
Format/Info : Audio Coding 3
Format settings, Endianness : Big
Codec ID : 2000
Duration : 1 h 33 min
Bit rate mode : Constant
Bit rate : 192 kb/s
Channel(s) : 2 channels
Channel positions : Front: L R
Sampling rate : 48.0 kHz
Frame rate : 31.250 FPS (1536 SPF)
Bit depth : 16 bits
Compression mode : Lossy
Stream size : 128 MiB (9%)
Alignment : Split accross interleaves
Interleave, duration : 42 ms (1.00 video frame)
Interleave, preload duratio : 500 ms
Title : ТВЦ: Александр Клюквин, Виктор Петров и Людмила Ильина
Service kind : Complete Main

Скриншот c названием фильма

Скриншоты

If your ratio falls below 0.3, you will not be able to download Torrents! More about the rating.

[erzsebet.pl].t631.torrent
Torrent: Registered   [ 2017-12-02 17:13 ]

Download .torrent

Download

15 KB

Status: checked
Completed: 16 times
Size: 1.44 GB
terms.php

#1

02-Dec-2017 17:13

[Profile]  [PM] 
Display posts:    

You cannot post new topics in this forum
You cannot reply to topics in this forum
You cannot edit your posts in this forum
You cannot delete your posts in this forum
You cannot vote in polls in this forum
You cannot attach files in this forum
You can download files in this forum
User agreement
For copyright holders
Advertise on this site

Скачайте на халяву через торрент на трекере erzsebet.pl

!ATTENTION!
The site does not give electronic versions of products, and is engaged only in a collecting and cataloguing of the references sent and published at a forum by our readers. If you are the legal owner of any submitted material and do not wish that the reference to it was in our catalogue, contact us and we shall immediately remove her. Files for an exchange on tracker are given by users of a site, and the administration does not bear the responsibility for their maintenance. The request to not fill in the files protected by copyrights, and also files of the illegal maintenance!