Взаперти / Тюряга / Lock Up (Джон Флинн / John Flynn) [1989, США, боевик, драма, криминал, HDRip] DVO (ОРТ) + MVO (РТР)

DL-List and Torrent activity
Size:  1.41 GB   |    Registered:  2 years 9 months   |    Completed:  16 times
Seeders:  4  
 
   
 
 

erzsebet.org ®

Longevity:
2 years 9 months
Posts:
47596

[Quote] 

Взаперти / Тюряга / Lock Up-Отважный борец за справедливость, не уступающий в смертельной схватке никому, он смело смотрит в глаза врагу.
Поверьте - всё будет хорошо, когда на экране обаятельный и непобедимый Сильвестр Сталлоне.
- Год выпуска: 1989
Страна: США
Жанр: боевик, драма, криминал
Продолжительность: 01:48:32
Перевод: Профессиональный (двухгоголосый закадровый) - ОРТ
Перевод 2: Профессиональный (многоголосый закадровый) - РТР
Субтитры: нет
Режиссер: Джон Флинн / John Flynn
В ролях: Сильвестр Сталлоне / Frank, Дональд Сазерленд / Warden Drumgoole, Джон Эймос / Meissner, Дарлэнн Флюгел / Melissa, Том Сайзмор / Dallas, Фрэнк МакРей / Eclipse, Уильям Аллен Янг / Braden-Мировая премьера: 4 августа 1989-Описание: Заключенный Фрэнк Леоне за полгода до окончания срока, полученного за совершение относительно мелкого преступления, ожидал условно-досрочного освобождения. Но не дремал его лютый враг Драмгул - начальник тюрьмы особо строгого режима, назначенный сюда после публичного выступления Фрэнка, разоблачившего махинации охранников. Драмгул сумел перевести Леоне в свою тюрьму и поклялся, что Фрэнк больше никогда не увидит свободы...-Огромная благодарность:
Max (polkera) Power - видеоряд
pasific2013 - личная запись фильма с телеканала ОРТ через видеомагнитофон и оцифровка звука с видеокассеты.
Alterr87 - личная запись перевода РТР с телеканала Че через спутниковое телевидение.
JUSTKANT - синхронизация переводов.-ДАННЫЕ ПЕРЕВОДЫ НА ТРЕКЕРЕ ПОЯВЛЯЮТСЯ ВПЕРВЫЕ.
На русский язык фильм озвучен кинокомпанией "Селена Интернешнл" по заказу Общественного Российского Телевидения.
Текст читают Александр Клюквин и Анна Каменкова.
На русский язык фильм озвучен на студии "Нота" по заказу РТР в 2001 году.
Текст читают Юрий Меншагин, Алексей Демидов и Мария Овчинникова-
Рейтинг

MPAA: R - Лицам до 17 лет обязательно присутствие взрослого.-Качество видео: HDRip
Формат видео: AVI -> //Сэмпл//
Видео: XviD, 720x384 (1.85:1), 24.000 fps, 1468 kbps
Аудио:
1 - 48 khz, AC3 Dolby Digital, 2/0 (L,R) ch, ~192 kbps [ОРТ] VHSRip-ТВ
2 - 48 khz, AC3 Dolby Digital, 2/0 (L,R) ch, ~192 kbps [РТР / СТС / ДТВ / Че] SATRip-РАЗДАЧА ОБНОВЛЕНА 07.11.2017
Перевод Премьер Видео Фильм (который я ещё по ошибке называл переводом ОРТ) заменён на раритетный и самый настоящий перевод от телеканала ОРТ.
Просьба перескачать торрент!

Информация о переводе ОРТ

К сожалению, в переводе во время ТВ-записи из-за рекламы был пропущен вот этот эпизод:
00:41:09 - 00:42:48
Поэтому там вставлен перевод Премьер Видео Фильм.

MediaInfo

General
Complete name : D:\Взаперти (ОРТ + РТР).avi
Format : AVI
Format/Info : Audio Video Interleave
File size : 1.41 GiB
Duration : 1 h 48 min
Overall bit rate : 1 865 kb/s
Movie name : Взаперти / Тюряга / Lock Up (ОРТ + РТР)
Director : JUSTKANT
Writing application : VirtualDubMod 1.5.10.3 (build 2550/release)
Copyright : На русский язык фильм озвучен кинокомпанией "Селена Интернешнл" по заказу ОРТ
Comment : Качество звука: ОРТ - VHSRipТВ (pasific2013) и РТР - SATRip (Alterr87)
Video
ID : 0
Format : MPEG-4 Visual
Format profile : Advanced [email protected]
Format settings, BVOP : 2
Format settings, QPel : No
Format settings, GMC : No warppoints
Format settings, Matrix : Custom
Codec ID : XVID
Codec ID/Hint : XviD
Duration : 1 h 48 min
Bit rate : 1 468 kb/s
Width : 720 pixels
Height : 384 pixels
Display aspect ratio : 1.85:1
Frame rate : 24.000 FPS
Color space : YUV
Chroma subsampling : 4:2:0
Bit depth : 8 bits
Scan type : Progressive
Compression mode : Lossy
Bits/(Pixel*Frame) : 0.221
Stream size : 1.11 GiB (79%)
Writing library : XviD 1.2.1 (UTC 2008-12-04)
Audio #1
ID : 1
Format : AC-3
Format/Info : Audio Coding 3
Format settings, Endianness : Big
Codec ID : 2000
Duration : 1 h 48 min
Bit rate mode : Constant
Bit rate : 192 kb/s
Channel(s) : 2 channels
Channel positions : Front: L R
Sampling rate : 48.0 kHz
Frame rate : 31.250 FPS (1536 SPF)
Bit depth : 16 bits
Compression mode : Lossy
Stream size : 149 MiB (10%)
Alignment : Split accross interleaves
Interleave, duration : 42 ms (1.00 video frame)
Interleave, preload duratio : 500 ms
Title : ОРТ: Александр Клюквин и Ольга Сирина
Service kind : Complete Main
Audio #2
ID : 2
Format : AC-3
Format/Info : Audio Coding 3
Format settings, Endianness : Big
Codec ID : 2000
Duration : 1 h 48 min
Bit rate mode : Constant
Bit rate : 192 kb/s
Channel(s) : 2 channels
Channel positions : Front: L R
Sampling rate : 48.0 kHz
Frame rate : 31.250 FPS (1536 SPF)
Bit depth : 16 bits
Compression mode : Lossy
Delay relative to video : 25 ms
Stream size : 149 MiB (10%)
Alignment : Split accross interleaves
Interleave, duration : 42 ms (1.00 video frame)
Interleave, preload duratio : 500 ms
Title : РТР/ДТВ/Че
Service kind : Complete Main

Скриншот c названием фильма

Скриншоты

If your ratio falls below 0.3, you will not be able to download Torrents! More about the rating.

[erzsebet.pl].t635.torrent
Torrent: Registered   [ 2017-12-02 17:13 ]

Download .torrent

Download

15 KB

Status: checked
Completed: 16 times
Size: 1.41 GB
terms.php

#1

02-Dec-2017 17:13

[Profile]  [PM] 
Display posts:    

You cannot post new topics in this forum
You cannot reply to topics in this forum
You cannot edit your posts in this forum
You cannot delete your posts in this forum
You cannot vote in polls in this forum
You cannot attach files in this forum
You can download files in this forum
User agreement
For copyright holders
Advertise on this site

Скачайте на халяву через торрент на трекере erzsebet.pl

!ATTENTION!
The site does not give electronic versions of products, and is engaged only in a collecting and cataloguing of the references sent and published at a forum by our readers. If you are the legal owner of any submitted material and do not wish that the reference to it was in our catalogue, contact us and we shall immediately remove her. Files for an exchange on tracker are given by users of a site, and the administration does not bear the responsibility for their maintenance. The request to not fill in the files protected by copyrights, and also files of the illegal maintenance!