Я - судья / Суд – это я / I, the Jury (Ричард Т. Хеффрон / Richard T. Heffron) [1982, США, триллер, драма, криминал, детектив, BDRip-AVC] MVO (НТВ) + AVO (Михалев)

DL-List and Torrent activity
Size:  2.2 GB   |    Registered:  2 years 9 months   |    Completed:  16 times
Seeders:  9  
 
   
 
 

erzsebet.org ®

Longevity:
2 years 9 months
Posts:
47596

[Quote] 

Я - судья / Суд – это я / I, the Jury Страна: США
Производство: American Cinema Productions, Larco Productions Inc., Pellepont
Жанр: триллер, драма, криминал, детектив
Год выпуска: 1982
Продолжительность: 01:51:05
Перевод 1: Профессиональный (многоголосый закадровый) НТВ
Перевод 2: Авторский одноголосый, А.Михалев
Субтитры: нет
Режиссер: Ричард Т. Хеффрон / Richard T. Heffron
В ролях: Арманд Ассанте, Барбара Каррера, Лаурен Лэндон, Алан Кинг, Джеффри Льюис, Пол Сорвино, Джадсон Ирни Скотт, Бэрри Снайдер, Джулия Барр, Джесика Джеймс
Описание: Начало 80-х. В одном из злачных нью-йоркских отелей выстрелом в живот убит однорукий следователь по имени Джек Уилльямс. Приехавший на место преступления частный детектив Майк Хаммер узнаёт в убитом своего лучшего друга, с которым прошел вьетнамскую войну. Его цель – найти убийцу и заказчиков своего сослуживца. Хаммер начинает свое собственное расследование по этому делу и погружается в мир автомобильных погонь, политических интриг, порнобизнеса, где принимает непосредственное участие ЦРУ.
Доп. информация: Исходник I,the.Jury.1982.BDRemux.1080p
Rip by kohora
Возраст: 18+ (зрителям, достигшим 18 лет. запрещено для детей)
Рейтинг MPAA: NC-17 (лицам до 17 лет просмотр запрещен)
На непереведенных местах (Многоголосый закадровый, НТВ) вставки авторского перевода А.Михалева.- -
Качество видео: BDRip-AVC
Формат видео: MKV
Видео: AVC, 1152x624, 2440 Кбит/сек, 23,976 (24000/1001) кадра/сек
Аудио: Russian - AC3, 192 Кбит/сек, 2 канала, 48,0 КГц (Многоголосый закадровый, НТВ)
Аудио: Russian - AC3, 192 Кбит/сек, 2 канала, 48,0 КГц (Авторский одноголосый, А.Михалев)

MediaInfo

Полное имя : Я - Судья (США, 1982, триллер, драма, криминал) 2.19.mkv
Формат : Matroska
Версия формата : Version 4 / Version 2
Размер файла : 2,20 Гбайт
Продолжительность : 1 ч. 51 м.
Общий поток : 2830 Кбит/сек
Программа кодирования : XviD4PSP 7.0.417 DAILY
Библиотека кодирования : Lavf57.71.100
Примечание : Rip by kohora
ErrorDetectionType : Per level 1
Attachments : poster.jpg
ENCODING_INFO : BluRay > MKV MKV H264 192kbs / H264 > X264 VBR-2P 2440kbps UMH 24 max me / AC3 > COPY Безопасное / AC3 > COPY Безопасное
Язык : und
Видео
Идентификатор : 1
Формат : AVC
Формат/Информация : Advanced Video Codec
Профиль формата : [email protected]
Настройки формата : CABAC / 11 Ref Frames
Параметр CABAC формата : Да
Параметр RefFrames формата : 11 кадров
Идентификатор кодека : V_MPEG4/ISO/AVC
Продолжительность : 1 ч. 51 м.
Битрейт : 2440 Кбит/сек
Ширина : 1152 пикселя
Высота : 624 пикселя
Соотношение сторон : 1,85:1
Режим частоты кадров : Постоянный
Частота кадров : 23,976 (24000/1001) кадра/сек
Цветовое пространство : YUV
Субдискретизация насыщенности : 4:2:0
Битовая глубина : 8 бит
Тип развёртки : Прогрессивная
Бит/(Пиксели*Кадры) : 0.142
Размер потока : 1,85 Гбайт (84%)
Библиотека кодирования : x264 core 152 r2851M ba24899
Настройки программы : cabac=1 / ref=11 / deblock=1:-1:-1 / analyse=0x3:0x133 / me=umh / subme=11 / psy=1 / psy_rd=1.00:0.00 / mixed_ref=1 / me_range=24 / chroma_me=1 / trellis=2 / 8x8dct=1 / cqm=0 / deadzone=21,11 / fast_pskip=0 / chroma_qp_offset=-2 / threads=5 / lookahead_threads=1 / sliced_threads=0 / nr=0 / decimate=1 / interlaced=0 / bluray_compat=0 / constrained_intra=0 / bframes=16 / b_pyramid=2 / b_adapt=2 / b_bias=0 / direct=3 / weightb=1 / open_gop=0 / weightp=2 / keyint=230 / keyint_min=23 / scenecut=40 / intra_refresh=0 / rc_lookahead=60 / rc=2pass / mbtree=1 / bitrate=2440 / ratetol=1.0 / qcomp=0.60 / qpmin=0 / qpmax=69 / qpstep=4 / cplxblur=20.0 / qblur=0.5 / ip_ratio=1.40 / aq=1:1.00
Default : Да
Forced : Нет
Цветовой диапазон : Limited
Основные цвета : BT.709
Характеристики трансфера : BT.709
Коэффициенты матрицы : BT.709
Аудио #1
Идентификатор : 2
Формат : AC-3
Формат/Информация : Audio Coding 3
Идентификатор кодека : A_AC3
Продолжительность : 1 ч. 51 м.
Вид битрейта : Постоянный
Битрейт : 192 Кбит/сек
Каналы : 2 канала
Расположение каналов : Front: L R
Частота : 48,0 КГц
Частота кадров : 31,250 кадров/сек (1536 SPF)
Битовая глубина : 16 бит
Метод сжатия : С потерями
Размер потока : 153 Мбайт (7%)
Заголовок : Многоголосый закадровый, НТВ
Язык : Russian
ServiceKind/String : Complete Main
Default : Да
Forced : Нет
Аудио #2
Идентификатор : 3
Формат : AC-3
Формат/Информация : Audio Coding 3
Идентификатор кодека : A_AC3
Продолжительность : 1 ч. 51 м.
Вид битрейта : Постоянный
Битрейт : 192 Кбит/сек
Каналы : 2 канала
Расположение каналов : Front: L R
Частота : 48,0 КГц
Частота кадров : 31,250 кадров/сек (1536 SPF)
Битовая глубина : 16 бит
Метод сжатия : С потерями
Размер потока : 153 Мбайт (7%)
Заголовок : Авторский одноголосый, А.Михалев
Язык : Russian
ServiceKind/String : Complete Main
Default : Нет
Forced : Нет
Меню
00:00:00.000 : :Глава 1
00:08:51.530 : :Глава 2
00:19:54.568 : :Глава 3
00:31:04.070 : :Глава 4
00:44:31.460 : :Глава 5
00:59:52.171 : :Глава 6
01:15:21.642 : :Глава 7
01:30:47.984 : :Глава 8
01:51:05.960 : :Глава 9

Скриншот c названием фильма

-Ссылки на мои файлы Раздача

If your ratio falls below 0.3, you will not be able to download Torrents! More about the rating.

[erzsebet.pl].t638.torrent
Torrent: Registered   [ 2017-12-02 17:13 ]

Download .torrent

Download

11 KB

Status: checked
Completed: 16 times
Size: 2.2 GB
terms.php

#1

02-Dec-2017 17:13

[Profile]  [PM] 
Display posts:    

You cannot post new topics in this forum
You cannot reply to topics in this forum
You cannot edit your posts in this forum
You cannot delete your posts in this forum
You cannot vote in polls in this forum
You cannot attach files in this forum
You can download files in this forum
User agreement
For copyright holders
Advertise on this site

Скачайте на халяву через торрент на трекере erzsebet.pl

!ATTENTION!
The site does not give electronic versions of products, and is engaged only in a collecting and cataloguing of the references sent and published at a forum by our readers. If you are the legal owner of any submitted material and do not wish that the reference to it was in our catalogue, contact us and we shall immediately remove her. Files for an exchange on tracker are given by users of a site, and the administration does not bear the responsibility for their maintenance. The request to not fill in the files protected by copyrights, and also files of the illegal maintenance!