Взрыв из прошлого / Blast from the Past (Хью Уилсон / Hugh Wilson) [1999, США, комедия, HDRip] [Полная версия / Full version] AVO (Гаврилов)

DL-List and Torrent activity
Size:  1.45 GB   |    Registered:  2 years 9 months   |    Completed:  16 times
Seeders:  2  
 
   
 
 

erzsebet.org ®

Longevity:
2 years 9 months
Posts:
47596

[Quote] 

Взрыв из прошлого / Blast from the Past
Полная версия / Full version
Страна: США
Жанр: Комедия
Год выпуска: 1999
Продолжительность: 01:52:06
Перевод: Авторский (одноголосый закадровый) Андрей Гаврилов
Субтитры: нет
Оригинальная аудиодорожка: нет
Режиссер: Хью Уилсон / Hugh Wilson
В ролях: Брендан Фрейзер, Алисия Сильверстоун, Кристофер Уокен, Сисси Спейсек, Дэйв Фоли, Джои Слотник, Дэйл Рауль, Хейден Тэнк, Дуглас Смит, Райан Спаркс
Описание: Адам Уэббер – молодой парень, он родился вполне нормальным ребенком, но, по нелепому недоразумению, провел тридцать пять лет вместе со своими родителями в бомбоубежище, в надежде пережить трудные времена. Искренний и наивный, он в первый раз оказался среди современных людей в бушующих девяностых в самом Лос-Анджелесе, где давно все поменялось! И кто скажет, быть может, он все еще успеет наверстать упущенное, которое составляет ни много, ни мало, детство, и юность…
Доп. информация:
Релиз от
Рип от Scarabey, исходник BDRip 1080p
Перевод состоялся благодаря пользователям форума dunhill200: alex75, SonnyBlack, saenwert, Chistobaev, hulahup, gross1978, MyxAmoP, chefichef, mazeu, karantin66, Cyberclean, Tagansky, kolibri2, ROLLYTYLER, Denis1980, luka69, Volshebnik, nimph
Сэмпл: http://multi-up.com/1177354
Качество видео: HDRip
Формат видео: AVI
Видео: XviD; 720x304 (2,35:1); 1394 Kbps; 23,976 fps; 0,266 bit/pixel
Аудио: AC3; 48 kHz, 448 Kbps; CBR; 6 ch

MediaInfo

Общее
Полное имя : Blast.from.the.Past.1999.HDRip.Gavrilov.lumpeN.avi
Формат : AVI
Формат/Информация : Audio Video Interleave
Размер файла : 1,45 Гбайт
Продолжительность : 1 ч. 52 м.
Общий поток : 1852 Кбит/сек
Название фильма : lumpeN
Программа кодирования : VirtualDubMod 1.5.10.2 (build 2540/release)
Библиотека кодирования : VirtualDubMod build 2540/release
Видео
Идентификатор : 0
Формат : MPEG-4 Visual
Профиль формата : Advanced [email protected]
Настройки формата : BVOP1 / Custom Matrix
Параметр BVOP формата : 1
Параметр QPel формата : Нет
Параметр GMC формата : Без точки перехода
Параметр матрицы формата : Выборочная
Идентификатор кодека : XVID
Идентификатор кодека/Подсказка : XviD
Продолжительность : 1 ч. 52 м.
Битрейт : 1394 Кбит/сек
Ширина : 720 пикселей
Высота : 304 пикселя
Соотношение сторон : 2,35:1
Частота кадров : 23,976 (24000/1001) кадра/сек
Частота кадров в оригинале : 23,976 (23976/1000) кадра/сек
Цветовое пространство : YUV
Субдискретизация насыщенности : 4:2:0
Битовая глубина : 8 бит
Тип развёртки : Прогрессивная
Метод сжатия : С потерями
Бит/(Пиксели*Кадры) : 0.266
Размер потока : 1,09 Гбайт (75%)
Библиотека кодирования : XviD 73
Аудио
Идентификатор : 1
Формат : AC-3
Формат/Информация : Audio Coding 3
Идентификатор кодека : 2000
Продолжительность : 1 ч. 52 м.
Вид битрейта : Постоянный
Битрейт : 448 Кбит/сек
Каналы : 6 каналов
Расположение каналов : Front: L C R, Side: L R, LFE
Частота : 48,0 КГц
Частота кадров : 31,250 кадров/сек (1536 SPF)
Битовая глубина : 16 бит
Метод сжатия : С потерями
Размер потока : 359 Мбайт (24%)
Выравнивание : Разделение по промежуткам
Продолжительность промежутка : 42 мс. (1,00 видеокадр)
Время предзагрузки промежутка : 500 мс.
Заголовок : Gavrilov
ServiceKind/String : Complete Main

Скриншоты

If your ratio falls below 0.3, you will not be able to download Torrents! More about the rating.

[erzsebet.pl].t641.torrent
Torrent: Registered   [ 2017-12-02 17:17 ]

Download .torrent

Download

15 KB

Status: checked
Completed: 16 times
Size: 1.45 GB
terms.php

#1

02-Dec-2017 17:17

[Profile]  [PM] 
Display posts:    

You cannot post new topics in this forum
You cannot reply to topics in this forum
You cannot edit your posts in this forum
You cannot delete your posts in this forum
You cannot vote in polls in this forum
You cannot attach files in this forum
You can download files in this forum
User agreement
For copyright holders
Advertise on this site

Скачайте на халяву через торрент на трекере erzsebet.pl

!ATTENTION!
The site does not give electronic versions of products, and is engaged only in a collecting and cataloguing of the references sent and published at a forum by our readers. If you are the legal owner of any submitted material and do not wish that the reference to it was in our catalogue, contact us and we shall immediately remove her. Files for an exchange on tracker are given by users of a site, and the administration does not bear the responsibility for their maintenance. The request to not fill in the files protected by copyrights, and also files of the illegal maintenance!