Человек тьмы-3. Умри, Человек тьмы, умри / Darkman III: Die Darkman Die (Брэдфорд Мэй / Bradford May) [1996, США, ужасы, фантастика, боевик, VHSRip] [Full Screen] AVO (Сергей Визгунов)

DL-List and Torrent activity
Size:  1.37 GB   |    Registered:  2 years 9 months   |    Completed:  16 times
Seeders:  2   Leechers:  1   Show peers in full details
 
   
 
 

erzsebet.org ®

Longevity:
2 years 9 months
Posts:
47596

[Quote] 

Человек тьмы-3. Умри, Человек тьмы, умри / Человек тьмы III. Умри, Человек тьмы / Darkman III: Die Darkman Die
[Full Screen]
«One fights for justice. The other for power. Only one can survive»
Страна: США
Жанр: ужасы, фантастика, боевик
Год выпуска: 1996
Продолжительность: 01:26:40
Перевод: Авторский (одноголосый закадровый) Сергей Визгунов
Субтитры: нет
Режиссер: Брэдфорд Мэй / Bradford May
В ролях: Джефф Фэйи, Арнольд Вослу, Дарлэнн Флюгел, Роксанн Доусон, Найджел Беннетт, Алисия Панетта, Ронн Саросьяк, Питер Грэхэм, Шон Дойл, Вьеслав Кристиан
Описание: Когда-то давно доктор Уэстлэйк был обезображен гангстерами и превратился в неуловимого мастера маскировки, отважного мстителя — «Человека Тьмы». В этот раз Человеку Тьмы снова противостоит опасный и сильный противник — безжалостный преступник Питер Рукер.
Коварный злодей хочет найти таинственный источник сверхъестественной силы героя и устраивает ему ловушку. Оказавшись в западне, Человек Тьмы вступает в свой последний и самый отчаянный бой с бандой Рукера, бой кровавый и жестокий…
Доп. информация: Оцифровка VHS (личный архив) и получение VHSRip alenavova
Эксклюзив для erzsebet.org. При размещении данного релиза на других сайтах ссылка на автора alenavova обязательна.
Релиз
Сэмпл: https://yadi.sk/i/JDK04jvm3PwiUp
Качество видео: VHSRip
Формат видео: AVI
Видео: 704x544 (1.29:1), 25 fps, XviD build 73 ~2056 kbps avg, 0.21 bit/pixel
Аудио: 48 kHz, AC3 Dolby Digital, 2/0 (L,R) ch, ~192 kbps

MediaInfo

Человек тьмы-3. Умри, Человек тьмы, умри - Darkman III (by alenavova).avi
Format : AVI
Format/Info : Audio Video Interleave
File size : 1.37 GiB
Duration : 1 h 26 min
Overall bit rate : 2 258 kb/s
Movie name : Человек тьмы-3. Умри, Человек тьмы, умри - Darkman III (by alenavova)
Director : by alenavova
Writing application : VirtualDubMod 1.5.10.3 | www.virtualdub-fr.org || (build 2550/release)
Copyright : Edich2
Comment : erzsebet.org
Video
ID : 0
Format : MPEG-4 Visual
Format profile : Advanced [email protected]
Format settings, BVOP : 2
Format settings, QPel : No
Format settings, GMC : No warppoints
Format settings, Matrix : Custom
Codec ID : XVID
Codec ID/Hint : XviD
Duration : 1 h 26 min
Bit rate : 2 057 kb/s
Width : 704 pixels
Height : 544 pixels
Display aspect ratio : 1.294
Frame rate : 25.000 FPS
Color space : YUV
Chroma subsampling : 4:2:0
Bit depth : 8 bits
Scan type : Progressive
Compression mode : Lossy
Bits/(Pixel*Frame) : 0.215
Stream size : 1.25 GiB (91%)
Writing library : XviD 73
Audio
ID : 1
Format : AC-3
Format/Info : Audio Coding 3
Format settings, Endianness : Big
Codec ID : 2000
Duration : 1 h 26 min
Bit rate mode : Constant
Bit rate : 192 kb/s
Channel(s) : 2 channels
Channel positions : Front: L R
Sampling rate : 48.0 kHz
Frame rate : 31.250 FPS (1536 spf)
Bit depth : 16 bits
Compression mode : Lossy
Stream size : 119 MiB (9%)
Alignment : Split accross interleaves
Interleave, duration : 40 ms (1.00 video frame)
Interleave, preload duratio : 500 ms
Service kind : Complete Main

Скриншоты


If your ratio falls below 0.3, you will not be able to download Torrents! More about the rating.

[erzsebet.pl].t647.torrent
Torrent: Registered   [ 2017-12-02 17:17 ]

Download .torrent

Download

14 KB

Status: checked
Completed: 16 times
Size: 1.37 GB
terms.php

#1

02-Dec-2017 17:17

[Profile]  [PM] 
Display posts:    

You cannot post new topics in this forum
You cannot reply to topics in this forum
You cannot edit your posts in this forum
You cannot delete your posts in this forum
You cannot vote in polls in this forum
You cannot attach files in this forum
You can download files in this forum
User agreement
For copyright holders
Advertise on this site

Скачайте на халяву через торрент на трекере erzsebet.pl

!ATTENTION!
The site does not give electronic versions of products, and is engaged only in a collecting and cataloguing of the references sent and published at a forum by our readers. If you are the legal owner of any submitted material and do not wish that the reference to it was in our catalogue, contact us and we shall immediately remove her. Files for an exchange on tracker are given by users of a site, and the administration does not bear the responsibility for their maintenance. The request to not fill in the files protected by copyrights, and also files of the illegal maintenance!