Я сумасшедший / Я безумец / Безумная / Попасть в переплёт / I, Madman / Hard Cover (Тибор Такач / Tibor Takacs) [1989, США, ужасы, триллер, BDRip] AVO (Андрей Гаврилов) + AVO (Вартан Дохалов)

DL-List and Torrent activity
Size:  1.46 GB   |    Registered:  2 years 9 months   |    Completed:  16 times
Seeders:  3   Leechers:  1   Show peers in full details
 
   
 
 

erzsebet.org ®

Longevity:
2 years 9 months
Posts:
47596

[Quote] 

Я сумасшедший / Я безумец / Безумная / Попасть в переплёт / I, Madman / Hard Cover
Страна: США
Жанр: ужасы, триллер
Год выпуска: 1989
Продолжительность: 01:30:12
Перевод: Авторский (одноголосый закадровый) Андрей Гаврилов
Перевод 2: Авторский (одноголосый закадровый) Вартан Дохалов
Субтитры: нет
Режиссер: Тибор Такач / Tibor Takacs
В ролях: Дженни Райт, Клэйтон Ронер, Рэндолл Уильям Кук, Стефани Ходж, Мишель Джордан, Вэнс Валенсия, Мэри Болдуин, Раф Назарио, Боб Фрэнк
Описание: Молодая женщина Вирджиния работает в букинистическом магазине и увлекается чтением различного рода литературных произведений в жанре хоррор. Случайным образом на чердаке магазинчика в пыли и хламе она находит книгу писателя Мальколма Брэнда под названием Чем больше безумие, тем больше грех, которая озаглавлена как Невыдуманная история и была написана где-то в середине пятидесятых годов. Заинтересованная находкой Вирджиния вскоре погружается в чтение и сюжет книги буквально захватывает её. Сюжет книги повествует враче и алхимике, который страстно влюбился в красавицу-актрису Анну Темплар. Однако Анна не отвечает на любовь алхимика и отвергает его, называя уродом. Последний в безумии и отчаянии обкалывает своё лицо новокаином и отрезает уши, нос, губы и скальп. В таком виде алхимик бродит по улицам и убивает случайных прохожих и отрезает у них те части лица, которых у него нет, и примеряет на себе, желая стать красивее. Дочитав книгу до конца Вирджиния в анонсе узнаёт, что существует продолжение под названием Я - сумасшедший. Однако отыскать книгу Вирджиния нигде не может. Вскоре некто неизвестный присылает ей эту книгу и, в то же время, в городе начинают происходить идентичные описанным в книге события. Уверенная в том, что убийства совершает герой романа, он же автор, Вирджиния начинает своё расследование: она находит разорившегося издателя этих книг и выясняет, что книги были вовсе не художественными, а биографическими, отражающими реальные события жизни Мальколма Брэнда....
Сэмпл: http://multi-up.com/1175194
Качество видео: BDRip (Исходник BDRemux 1080p)
Формат видео: AVI
Видео: XviD 73, 720x384, (1,85:1), 23,976 fps, 1916 Кбит/с, 8 бит, 0.29 bit/pixel
Аудио: Русский (АС3, 2 ch (Front: L R), 48,0 KHz, 192 Kbps) Андрей Гаврилов
Аудио 2: Русский (АС3, 2 ch (Front: L R), 48,0 KHz, 192 Kbps) Вартан Дохалов

MediaInfo

Общее
Полное имя : D:\Видеофильмы\В и д е о\Я сумасшедший (ужасы, триллер 1989 год).avi
Формат : AVI
Формат/Информация : Audio Video Interleave
Размер файла : 1,46 Гбайт
Продолжительность : 1 ч. 30 м.
Общий поток : 2310 Кбит/сек
Программа кодирования : VirtualDubMod 1.5.10.3 | www.virtualdub-fr.org || (build 2550/release)
Библиотека кодирования : VirtualDubMod build 2550/release
Видео
Идентификатор : 0
Формат : MPEG-4 Visual
Профиль формата : Advanced [email protected]
Параметр BVOP формата : 2
Параметр QPel формата : Нет
Параметр GMC формата : Без точки перехода
Параметр матрицы формата : Выборочная
Идентификатор кодека : XVID
Идентификатор кодека/Подсказка : XviD
Продолжительность : 1 ч. 30 м.
Битрейт : 1916 Кбит/сек
Ширина : 720 пикселей
Высота : 384 пикселя
Соотношение сторон : 1,85:1
Частота кадров : 23,976 (23976/1000) кадра/сек
Цветовое пространство : YUV
Субдискретизация насыщенности : 4:2:0
Битовая глубина : 8 бит
Тип развёртки : Прогрессивная
Метод сжатия : С потерями
Бит/(Пиксели*Кадры) : 0.289
Размер потока : 1,21 Гбайт (83%)
Библиотека кодирования : XviD 73
Аудио #1
Идентификатор : 1
Формат : AC-3
Формат/Информация : Audio Coding 3
Расширение режима : CM (complete main)
Параметр Endianness формата : Big
Идентификатор кодека : 2000
Продолжительность : 1 ч. 29 м.
Вид битрейта : Постоянный
Битрейт : 192 Кбит/сек
Каналы : 2 канала
Расположение каналов : Front: L R
Частота : 48,0 КГц
Частота кадров : 31,250 кадров/сек (1536 spf)
Метод сжатия : С потерями
Размер потока : 122 Мбайт (8%)
Выравнивание : Разделение по промежуткам
Продолжительность промежутка : 42 мс. (1,01 видеокадр)
Время предзагрузки промежутка : 500 мс.
Аудио #2
Идентификатор : 2
Формат : AC-3
Формат/Информация : Audio Coding 3
Расширение режима : CM (complete main)
Параметр Endianness формата : Big
Идентификатор кодека : 2000
Продолжительность : 1 ч. 29 м.
Вид битрейта : Постоянный
Битрейт : 192 Кбит/сек
Каналы : 2 канала
Расположение каналов : Front: L R
Частота : 48,0 КГц
Частота кадров : 31,250 кадров/сек (1536 spf)
Метод сжатия : С потерями
Размер потока : 122 Мбайт (8%)
Выравнивание : Разделение по промежуткам
Продолжительность промежутка : 42 мс. (1,01 видеокадр)
Время предзагрузки промежутка : 500 мс.

Скриншот c названием фильма

Скриншоты

If your ratio falls below 0.3, you will not be able to download Torrents! More about the rating.

[erzsebet.pl].t648.torrent
Torrent: Registered   [ 2017-12-02 17:13 ]

Download .torrent

Download

15 KB

Status: checked
Completed: 16 times
Size: 1.46 GB
terms.php

#1

02-Dec-2017 17:13

[Profile]  [PM] 
Display posts:    

You cannot post new topics in this forum
You cannot reply to topics in this forum
You cannot edit your posts in this forum
You cannot delete your posts in this forum
You cannot vote in polls in this forum
You cannot attach files in this forum
You can download files in this forum
User agreement
For copyright holders
Advertise on this site

Скачайте на халяву через торрент на трекере erzsebet.pl

!ATTENTION!
The site does not give electronic versions of products, and is engaged only in a collecting and cataloguing of the references sent and published at a forum by our readers. If you are the legal owner of any submitted material and do not wish that the reference to it was in our catalogue, contact us and we shall immediately remove her. Files for an exchange on tracker are given by users of a site, and the administration does not bear the responsibility for their maintenance. The request to not fill in the files protected by copyrights, and also files of the illegal maintenance!