Внутреннее пространство / В замкнутом космосе / Внутренний космос / Innerspace (Джо Данте / Joe Dante) [1987, США, фантастика, боевик, комедия, BDRip] AVO (Алексей Михалев) + AVO (Андрей Гаврилов) + AVO (Леонид Володарский) + VO (Алексей Попов)

DL-List and Torrent activity
Size:  3.09 GB   |    Registered:  2 years 9 months   |    Completed:  16 times
Seeders:  3   Leechers:  1   Show peers in full details
 
   
 
 

erzsebet.org ®

Longevity:
2 years 9 months
Posts:
47596

[Quote] 

Внутреннее пространство / В замкнутом космосе / Внутренний космос / Innerspace
Страна: США
Жанр: фантастика, боевик, комедия
Год выпуска: 1987
Продолжительность: 01:59:49
Перевод: Авторский (одноголосый закадровый) Алексей Михалев
Перевод 2: Авторский (одноголосый закадровый) Андрей Гаврилов (отдельно)
Перевод 3: Авторский (одноголосый закадровый) Леоднид Володарский (отдельно)
Перевод 4: Одноголосыйзакадровый Алексей Попов (отдельно)
Субтитры: нет
Режиссер: Джо Данте / Joe Dante
В ролях: Деннис Куэйд, Мартин Шорт, Мэг Райан, Кевин МакКарти, Фиона Льюис, Вернон Уэллс, Роберт Пикардо, Уэнди Шаал, Харолд Силвестер
Описание: Так Пендлтон – лейтенант американских ВВС принимает участие в необычном эксперименте. Суть его сводится к следующему. Пилот уменьшается в разы, помещается на летательный аппарат, который как подлодка будет исследовать пространство… внутри кролика. Уменьшенный Так помещается в шприце. Надо же было такому случиться, что террористы похищают героя, перечеркнув все научные планы. Содержимое шприца ошибочно оказывается внутри Джека Паттера. Этот обычный человек с натурой ипохондрика не знает, что стал объектом исследования. В историю подключается журналистка Лидия. Она – девушка Така, полная решимости помочь Паттеру....
Сэмпл: http://multi-up.com/1175074
Качество видео: BDRip (Исходник Blu-ray disc 1080p)
Формат видео: AVI
Видео: XviD 73, 720x400, (16:9), 23,976 fps, 2142 Кбит/с, 8 бит, 0.31 bit/pixel
Аудио: Русский (АС3, 6 ch (Front: L C R, Side: L R, LFE), 48,0 KHz, 448 Kbps) Алексей Михалев
Аудио 2: Русский (АС3, 2 ch (Front: L R), 48,0 KHz, 192 Kbps) Андрей Гаврилов (отдельно)
Аудио 3: Русский (АС3, 6 ch (Front: L C R, Side: L R, LFE), 48,0 KHz, 448 Kbps) Леоднид Володарский (отдельно)
Аудио 4: Русский (АС3, 6 ch (Front: L C R, Side: L R, LFE), 48,0 KHz, 448 Kbps) Алексей Попов (отдельно)

MediaInfo

Общее
Полное имя : D:\Видеофильмы\В и д е о\Внутреннее_пространство_(комедия, приключения 1987 год)_Leonard_Lew\Внутреннее_пространство_(комедия, приключения 1987 год)_Leonard_Lew.avi
Формат : AVI
Формат/Информация : Audio Video Interleave
Профиль формата : OpenDML
Размер файла : 2,18 Гбайт
Продолжительность : 1 ч. 59 м.
Общий поток : 2602 Кбит/сек
Программа кодирования : VirtualDubMod 1.5.10.2 (build 2540/release)
Библиотека кодирования : VirtualDubMod build 2540/release
Видео
Идентификатор : 0
Формат : MPEG-4 Visual
Профиль формата : Advanced [email protected]
Параметр BVOP формата : 2
Параметр QPel формата : Нет
Параметр GMC формата : Без точки перехода
Параметр матрицы формата : Выборочная
Идентификатор кодека : XVID
Идентификатор кодека/Подсказка : XviD
Продолжительность : 1 ч. 59 м.
Битрейт : 2142 Кбит/сек
Ширина : 720 пикселей
Высота : 400 пикселей
Соотношение сторон : 16:9
Частота кадров : 23,976 (23976/1000) кадра/сек
Цветовое пространство : YUV
Субдискретизация насыщенности : 4:2:0
Битовая глубина : 8 бит
Тип развёртки : Прогрессивная
Метод сжатия : С потерями
Бит/(Пиксели*Кадры) : 0.310
Размер потока : 1,79 Гбайт (82%)
Библиотека кодирования : XviD 73
Аудио
Идентификатор : 1
Формат : AC-3
Формат/Информация : Audio Coding 3
Расширение режима : CM (complete main)
Параметр Endianness формата : Big
Идентификатор кодека : 2000
Продолжительность : 1 ч. 59 м.
Вид битрейта : Постоянный
Битрейт : 448 Кбит/сек
Каналы : 6 каналов
Расположение каналов : Front: L C R, Side: L R, LFE
Частота : 48,0 КГц
Частота кадров : 31,250 кадров/сек (1536 spf)
Метод сжатия : С потерями
Размер потока : 384 Мбайт (17%)
Выравнивание : Разделение по промежуткам
Продолжительность промежутка : 42 мс. (1,00 видеокадр)
Время предзагрузки промежутка : 500 мс.

Скриншот c названием фильма

Скриншоты

If your ratio falls below 0.3, you will not be able to download Torrents! More about the rating.

[erzsebet.pl].t652.torrent
Torrent: Registered   [ 2017-12-02 17:13 ]

Download .torrent

Download

17 KB

Status: checked
Completed: 16 times
Size: 3.09 GB
terms.php

#1

02-Dec-2017 17:13

[Profile]  [PM] 
Display posts:    

You cannot post new topics in this forum
You cannot reply to topics in this forum
You cannot edit your posts in this forum
You cannot delete your posts in this forum
You cannot vote in polls in this forum
You cannot attach files in this forum
You can download files in this forum
User agreement
For copyright holders
Advertise on this site

Скачайте на халяву через торрент на трекере erzsebet.pl

!ATTENTION!
The site does not give electronic versions of products, and is engaged only in a collecting and cataloguing of the references sent and published at a forum by our readers. If you are the legal owner of any submitted material and do not wish that the reference to it was in our catalogue, contact us and we shall immediately remove her. Files for an exchange on tracker are given by users of a site, and the administration does not bear the responsibility for their maintenance. The request to not fill in the files protected by copyrights, and also files of the illegal maintenance!