Шахерезада / Тысяча и одна ночь / Les 1001 nuits / Sheherazade (Филипп Де Брока / Philippe de Broca) [1990, Франция, Италия, Швейцария, фэнтези, комедия, приключения, VHSRip] [Short version] VO Михаил Заугаров

DL-List and Torrent activity
Size:  1.37 GB   |    Registered:  2 years 9 months   |    Completed:  16 times
Seeders:  8   Leechers:  1   Show peers in full details
 
   
 
 

erzsebet.org ®

Longevity:
2 years 9 months
Posts:
47596

[Quote] 

Шахерезада / Тысяча и одна ночь / Les 1001 nuits / Sheherazade
[Short version]
«Scheherazade's story will be told once again»
Страна: Франция, Италия, Швейцария
Жанр: фэнтези, комедия, приключения
Год выпуска: 1990
Продолжительность: 01:34:10
Перевод: Одноголосый закадровый Михаил Заугаров
Субтитры: нет
Режиссер: Филипп Де Брока / Philippe de Broca
В ролях: Кэтрин Зета-Джонс /Catherine Zeta-Jones/, Жерар Жюньо /Gérard Jugnot/, Стефан Фрейсс /Stéphane Freiss/, Тьерри Лермитт /Thierry Lhermitte/, Витторио Гассман/Vittorio Gassman
Описание: 1. Аннотация от alenavova
Итак - сказка! Фантастическая, комедийная, приключенческая и для взрослых. События этой сказки с бешеным темпом перемещаются из Арабского Востока средних веков в современный Лондон и обратно. А все почему? Потому что Шахерезаде (Катрин Зета Джонс), вышедшей замуж за Султана (Лермитт), должны, как и положено, отрубить голову, но она бежит, встречает Аладдина, бежит вместе с ним, и - оказывается в Лондоне наших дней. Через... обыкновенный телевизор, стоящий в квартире Джинна (Жюньо), который "переехал" в Лондон еще раньше... Филипп ДеБрока снимал замечательные приключенческие картины: "Человек из Рио", "Злоключения китайца в китае", "Великолепный", "Африканец" и др. В фильме "Шахерезада" также обилие красок, эффектов, действующих лиц (есть даже Синдбад-Мореход в исполнении знаменитого Витторио Гассмана).
2. Комедийная экранизация знаменитых арабских сказок. Помимо Шехерезады (Кэтрин Зета-Джонс) в фильме появляются и другие сказочные персонажи — Синдбад (Гассман), халиф Багдада (Лермитт), а также Алладин (Фрайсс) со своей волшебной чашей и джином (Жюньо). Последний персонаж наиболее интересен, так как прибыл во времена Шехерезады из... XX века. Естественно, что такое временное смешение приводит ко многим комедийным ситуациям.
Доп. информация: Оцифровка VHS (личный архив) и получение VHSRip alenavova
Эксклюзив для erzsebet.org. При размещении данного релиза на других сайтах ссылка на автора alenavova обязательна.
Релиз
Сэмпл: https://yadi.sk/i/TUZnRNyd3PRbg9
Качество видео: VHSRip
Формат видео: AVI
Видео: 704x512 (1.38:1), 25 fps, XviD build 73 ~1877 kbps avg, 0.21 bit/pixel
Аудио: 48 kHz, AC3 Dolby Digital, 2/0 (L,R) ch, ~192 kbps

MediaInfo

Шехерезада - Sheherazade [by alenavova].avi
Format : AVI
Format/Info : Audio Video Interleave
File size : 1.37 GiB
Duration : 1 h 34 min
Overall bit rate : 2 079 kb/s
Movie name : Шехерезада - Sheherazade [by alenavova]
Director : by alenavova
Writing application : VirtualDubMod 1.5.10.3 | www.virtualdub-fr.org || (build 2550/release)
Copyright : Edich2
Comment : erzsebet.org
Video
ID : 0
Format : MPEG-4 Visual
Format profile : Advanced [email protected]
Format settings, BVOP : 2
Format settings, QPel : No
Format settings, GMC : No warppoints
Format settings, Matrix : Custom
Codec ID : XVID
Codec ID/Hint : XviD
Duration : 1 h 34 min
Bit rate : 1 878 kb/s
Width : 704 pixels
Height : 512 pixels
Display aspect ratio : 1.375
Frame rate : 25.000 FPS
Color space : YUV
Chroma subsampling : 4:2:0
Bit depth : 8 bits
Scan type : Progressive
Compression mode : Lossy
Bits/(Pixel*Frame) : 0.208
Stream size : 1.24 GiB (90%)
Writing library : XviD 73
Audio
ID : 1
Format : AC-3
Format/Info : Audio Coding 3
Format settings, Endianness : Big
Codec ID : 2000
Duration : 1 h 34 min
Bit rate mode : Constant
Bit rate : 192 kb/s
Channel(s) : 2 channels
Channel positions : Front: L R
Sampling rate : 48.0 kHz
Frame rate : 31.250 FPS (1536 spf)
Bit depth : 16 bits
Compression mode : Lossy
Stream size : 129 MiB (9%)
Alignment : Split accross interleaves
Interleave, duration : 40 ms (1.00 video frame)
Interleave, preload duratio : 500 ms
Service kind : Complete Main

If your ratio falls below 0.3, you will not be able to download Torrents! More about the rating.

[erzsebet.pl].t657.torrent
Torrent: Registered   [ 2017-12-02 17:13 ]

Download .torrent

Download

14 KB

Status: checked
Completed: 16 times
Size: 1.37 GB
terms.php

#1

02-Dec-2017 17:13

[Profile]  [PM] 
Display posts:    

You cannot post new topics in this forum
You cannot reply to topics in this forum
You cannot edit your posts in this forum
You cannot delete your posts in this forum
You cannot vote in polls in this forum
You cannot attach files in this forum
You can download files in this forum
User agreement
For copyright holders
Advertise on this site

Скачайте на халяву через торрент на трекере erzsebet.pl

!ATTENTION!
The site does not give electronic versions of products, and is engaged only in a collecting and cataloguing of the references sent and published at a forum by our readers. If you are the legal owner of any submitted material and do not wish that the reference to it was in our catalogue, contact us and we shall immediately remove her. Files for an exchange on tracker are given by users of a site, and the administration does not bear the responsibility for their maintenance. The request to not fill in the files protected by copyrights, and also files of the illegal maintenance!