Чёрная дыра / Pitch Black (Дэвид Туи / David Twohy) [2000, США, Австралия, фантастика, DVB] [Fullscreen] MVO (телеканал Россия) + DVO (Премьер Видео Фильм)

DL-List and Torrent activity
Size:  2.59 GB   |    Registered:  2 years 9 months   |    Completed:  16 times
Seeders:  4   Leechers:  1   Show peers in full details
 
   
 
 

erzsebet.org ®

Longevity:
2 years 9 months
Posts:
47596

[Quote] 

Чёрная дыра
Pitch Black
Fullscreen Страна: США, Австралия
Жанр: фантастика
Год выпуска: 2000
Продолжительность: 01:38:09-Перевод 1: Профессиональный (многоголосый закадровый) телеканал Россия
Перевод 2: Профессиональный (двухголосый закадровый) Премьер Видео Фильм
Субтитры: нет
Оригинальная аудиодорожка: нет-Режиссер: Дэвид Туи / David Twohy
В ролях: Вин Дизель, Рада Митчелл, Коул Хаузер, Кит Дэвид, Льюис Фиц-Джералд, Клаудия Блэк, Риана Гриффит, Джон Мур, Саймон Бурк, Лес Чэнтери, Фирэсс Дирани,-Описание: В недалеком будущем космический корабль терпит бедствие, в результате чего совершает вынужденную посадку на отдаленной планете. Но в результате такой посадки погибает командир корабля, часть команды и большинство пассажиров. Оставшиеся в живых оказываются одни на жуткой и безжизненной планете. Первое, что бросается в глаза — это то, что планета имеет три солнца, из-за чего все живое погибает в этой пустыне. Но как только планета погружается в темноту, появляются какие-то странные существа…-Доп. информация: Fullscreen
DVB имеет иное наполнение кадра, чем BD
Финальных титров нет
Вторая озвучка синхронизирована без пережатия
За неё спасибо RoxMarty
Осталось два баннера (смотрим первый и девятый скрины)
Сэмпл: минута35сек-Качество видео: DVB
Формат видео: MKV
Видео: AVC, 720х[email protected]х576, 4:3, 25,000 кадров/сек, 3140 Кбит/сек
Аудио 1: MP2, 48,0 КГц, 256 Кбит/сек, 2 канала (многоголосый телеканал Россия)
Аудио 2: AC-3, 48,0 КГц, 384 Кбит/сек, 2 канала (двухголосый Премьер Видео Фильм)

Сравнение версий

Widescreen---Open Matte---Fullscreen






MediaInfo

Общее
Уникальный идентификатор : 244061311511634866679298204712196670802 (0xB79C7FB20E516F0BA8F0AFC0BA508552)
Полное имя : Чёрная дыра.2000.DVB.mkv
Формат : Matroska
Версия формата : Version 4 / Version 2
Размер файла : 2,59 Гбайт
Продолжительность : 1 ч. 38 м.
Общий поток : 3784 Кбит/сек
Название фильма : Чёрная дыра / Pitch Black / 2000 / DVB / Full Screen
Дата кодирования : UTC 2017-11-17 10:18:24
Программа кодирования : mkvmerge v8.3.0 ('Over the Horizon') 32bit
Библиотека кодирования : libebml v1.3.1 + libmatroska v1.4.2
Видео
Идентификатор : 1
Формат : AVC
Формат/Информация : Advanced Video Codec
Профиль формата : [email protected]
Настройки формата : CABAC / 3 Ref Frames
Параметр CABAC формата : Да
Параметр RefFrames формата : 3 кадра
Идентификатор кодека : V_MPEG4/ISO/AVC
Продолжительность : 1 ч. 38 м.
Битрейт : 3140 Кбит/сек
Ширина : 720 пикселей
Высота : 576 пикселей
Соотношение сторон : 4:3
Соотношение сторон в оригинале : 4:3
Режим частоты кадров : Переменный
Частота кадров : 25,623 кадров/сек
Частота кадров в оригинале : 25,000 кадров/сек
Стандарт вещания : Component
Цветовое пространство : YUV
Субдискретизация насыщенности : 4:2:0
Битовая глубина : 8 бит
Тип развёртки : Чересстрочная
Метод сохранения типа развёртки : Раздельные поля
Порядок развёртки : Верхнее поле первое
Бит/(Пиксели*Кадры) : 0.295
Размер потока : 2,15 Гбайт (83%)
Заголовок : Чёрная дыра / Pitch Black / 2000 / DVB / Full Screen
Язык : English
Default : Да
Forced : Нет
Цветовой диапазон : Limited
Основные цвета : BT.601 PAL
Характеристики трансфера : BT.470 System B, BT.470 System G
Коэффициенты матрицы : BT.470 System B, BT.470 System G
Аудио #1
Идентификатор : 2
Формат : MPEG Audio
Версия формата : Version 1
Профиль формата : Layer 2
Идентификатор кодека : A_MPEG/L2
Идентификатор кодека/Подсказка : MP2
Продолжительность : 1 ч. 38 м.
Вид битрейта : Постоянный
Битрейт : 256 Кбит/сек
Каналы : 2 канала
Частота : 48,0 КГц
Частота кадров : 41,667 кадра/сек (1152 SPF)
Метод сжатия : С потерями
Размер потока : 180 Мбайт (7%)
Заголовок : многоголосый ТВ3 / Россия
Язык : Russian
Default : Да
Forced : Нет
Аудио #2
Идентификатор : 3
Формат : AC-3
Формат/Информация : Audio Coding 3
Идентификатор кодека : A_AC3
Продолжительность : 1 ч. 38 м.
Вид битрейта : Постоянный
Битрейт : 384 Кбит/сек
Каналы : 2 канала
Расположение каналов : Front: L R
Частота : 48,0 КГц
Частота кадров : 31,250 кадров/сек (1536 SPF)
Битовая глубина : 16 бит
Метод сжатия : С потерями
Размер потока : 270 Мбайт (10%)
Заголовок : двухголосый Премьер Видео Фильм
Язык : Russian
ServiceKind/String : Complete Main
Default : Нет
Forced : Нет

Скриншот c названием фильма

Скриншоты

If your ratio falls below 0.3, you will not be able to download Torrents! More about the rating.

[erzsebet.pl].t658.torrent
Torrent: Registered   [ 2017-12-02 17:17 ]

Download .torrent

Download

13 KB

Status: checked
Completed: 16 times
Size: 2.59 GB
terms.php

#1

02-Dec-2017 17:17

[Profile]  [PM] 
Display posts:    

You cannot post new topics in this forum
You cannot reply to topics in this forum
You cannot edit your posts in this forum
You cannot delete your posts in this forum
You cannot vote in polls in this forum
You cannot attach files in this forum
You can download files in this forum
User agreement
For copyright holders
Advertise on this site

Скачайте на халяву через торрент на трекере erzsebet.pl

!ATTENTION!
The site does not give electronic versions of products, and is engaged only in a collecting and cataloguing of the references sent and published at a forum by our readers. If you are the legal owner of any submitted material and do not wish that the reference to it was in our catalogue, contact us and we shall immediately remove her. Files for an exchange on tracker are given by users of a site, and the administration does not bear the responsibility for their maintenance. The request to not fill in the files protected by copyrights, and also files of the illegal maintenance!