Обратная сторона полуночи / Другая сторона полуночи / По другую сторону полуночи / The Other Side of Midnight (Чарльз Джэрротт / Charles Jarrott) [1977, США, триллер, драма, мелодрама, DVDRip] AVO (Юрий Товбин)

DL-List and Torrent activity
Size:  2.17 GB   |    Registered:  2 years 9 months   |    Completed:  16 times
Seeders:  1  
 
   
 
 

erzsebet.org ®

Longevity:
2 years 9 months
Posts:
47596

[Quote] 

Обратная сторона полуночи / Другая сторона полуночи / По другую сторону полуночи / The Other Side of Midnight
Страна: США
Жанр: триллер, драма, мелодрама
Год выпуска: 1977
Продолжительность: 02:46:08
Перевод: Авторский (одноголосый закадровый) Юрий Товбин
Субтитры: нет
Режиссер: Чарльз Джэрротт / Charles Jarrott
В ролях: Мари-Франс Пизье, Джон Бек, Сьюзан Сарандон, Раф Валлоне, Клу Гулажер, Кристиан Маркан, Майкл Лернер, Соррел Бук, Энтони Понзини
Описание: Красивая француженка Ноэль Паж влюбляется в американского летчика Ларри Дугласа и верит, что он тоже любит ее. Но вскоре понимает, что жестоко обманулась в своих ожиданиях.Чтобы отвлечься от грустных мыслей, молодая женщина отправляется в путешествие по Европе. Но забыть Ларри она не в силах. Став любовницей греческого магната Константина Демериса, Ноэль анонимно нанимает ничего не подозревающего Ларри, как частного пилота, чтобы поквитаться с ним…
Доп. информация: Выражаю огромную благодарность Нордеру за синхронизацию звуковой дорожки.
Сэмпл: http://multi-up.com/1177454
Качество видео: DVDRip (Исходник - DVD Video)
Формат видео: AVI
Видео: XviD 73, 704x384, (1,85:1), 23,976 fps, 1664 Кбит/с, 8 бит, 0.26 bit/pixel
Аудио: Русский (АС3, 2 ch (Front: L R), 48,0 KHz, 192 Kbps)

MediaInfo

Общее
Полное имя : H:\Фильмы на трекер\Обратная сторона полуночи (триллер, драма 1977 год).avi
Формат : AVI
Формат/Информация : Audio Video Interleave
Профиль формата : OpenDML
Размер файла : 2,17 Гбайт
Продолжительность : 2 ч. 46 м.
Общий поток : 1868 Кбит/сек
Программа кодирования : VirtualDubMod 1.5.10.3 | www.virtualdub-fr.org || (build 2550/release)
Библиотека кодирования : VirtualDubMod build 2550/release
Видео
Идентификатор : 0
Формат : MPEG-4 Visual
Профиль формата : Advanced [email protected]
Параметр BVOP формата : 2
Параметр QPel формата : Нет
Параметр GMC формата : Без точки перехода
Параметр матрицы формата : Выборочная
Идентификатор кодека : XVID
Идентификатор кодека/Подсказка : XviD
Продолжительность : 2 ч. 46 м.
Битрейт : 1664 Кбит/сек
Ширина : 704 пикселя
Высота : 384 пикселя
Соотношение сторон : 1,85:1
Частота кадров : 23,976 (24000/1001) кадра/сек
Цветовое пространство : YUV
Субдискретизация насыщенности : 4:2:0
Битовая глубина : 8 бит
Тип развёртки : Прогрессивная
Метод сжатия : С потерями
Бит/(Пиксели*Кадры) : 0.257
Размер потока : 1,93 Гбайт (89%)
Библиотека кодирования : XviD 73
Аудио
Идентификатор : 1
Формат : AC-3
Формат/Информация : Audio Coding 3
Расширение режима : CM (complete main)
Параметр Endianness формата : Big
Идентификатор кодека : 2000
Продолжительность : 2 ч. 46 м.
Вид битрейта : Постоянный
Битрейт : 192 Кбит/сек
Каналы : 2 канала
Расположение каналов : Front: L R
Частота : 48,0 КГц
Частота кадров : 31,250 кадров/сек (1536 spf)
Метод сжатия : С потерями
Размер потока : 228 Мбайт (10%)
Выравнивание : Разделение по промежуткам
Продолжительность промежутка : 42 мс. (1,00 видеокадр)
Время предзагрузки промежутка : 500 мс.

Скриншот c названием фильма

Скриншоты

Сравнительные сэмплы

Сравнение с этим -- http://erzsebet.org/forum/viewtopic.php?t=447418
http://multi-up.com/1177562 - Сэмпл с другой раздачи
http://multi-up.com/1177566 - Сэмпл с моего рипа

If your ratio falls below 0.3, you will not be able to download Torrents! More about the rating.

[erzsebet.pl].t66.torrent
Torrent: Registered   [ 2017-12-02 15:58 ]

Download .torrent

Download

11 KB

Status: checked
Completed: 16 times
Size: 2.17 GB
terms.php

#1

02-Dec-2017 15:57

[Profile]  [PM] 
Display posts:    

You cannot post new topics in this forum
You cannot reply to topics in this forum
You cannot edit your posts in this forum
You cannot delete your posts in this forum
You cannot vote in polls in this forum
You cannot attach files in this forum
You can download files in this forum
User agreement
For copyright holders
Advertise on this site

Скачайте на халяву через торрент на трекере erzsebet.pl

!ATTENTION!
The site does not give electronic versions of products, and is engaged only in a collecting and cataloguing of the references sent and published at a forum by our readers. If you are the legal owner of any submitted material and do not wish that the reference to it was in our catalogue, contact us and we shall immediately remove her. Files for an exchange on tracker are given by users of a site, and the administration does not bear the responsibility for their maintenance. The request to not fill in the files protected by copyrights, and also files of the illegal maintenance!