Скала Малхолланд / Mulholland Falls (Ли Тамахори / Lee Tamahori) [1995, США, Криминал, драма, триллер, VHSRip] [Full Screen] AVO (Андрей Гаврилов)

DL-List and Torrent activity
Size:  1.42 GB   |    Registered:  2 years 9 months   |    Completed:  16 times
Seeders:  3  
 
   
 
 

erzsebet.org ®

Longevity:
2 years 9 months
Posts:
47596

[Quote] 

Скала Малхолланд / Mulholland Falls
[Full Screen]
Страна: США
Жанр: Криминал, драма, триллер
Год выпуска: 1995
Продолжительность: 01:46:32
Перевод: Авторский (одноголосый закадровый) Андрей Гаврилов West
Субтитры: нет
Режиссер: Ли Тамахори / Lee Tamahori
В ролях: Ник Нолти /Nick Nolte/, Мелани Гриффит /Melanie Griffith/, Чазз Палминтери /Chazz Palminteri/, Майкл Мэдсен /Michael Madsen/, Кристофер Пенн /Christopher Penn/, Трит Уильямс /Treat Williams/, Дженнифер Коннелли /Jennifer Connelly/, Дэниэл Болдуин /Daniel Baldwin/, Эндрю МакКарти /Andrew McCarthy/, Джон Малкович /John Malkovich/
Описание: Лос-Анджелес, начало 50-х. Особые полномочия в борьбе с преступностью получает полицейское подразделение Макса Гувера. В окрестностях города найдено тело убитой Эллисон Понд. О ее тайных свиданиях с Максом не подозревали ни его жена Кэтрин, ни друзья. Расследование приводит детектива на военную базу генерала Тиммса...
Доп. информация: Оцифровка VHS (личный архив) и получение VHSRip alenavova
Эксклюзив для erzsebet.org. При размещении данного релиза на других сайтах ссылка на автора alenavova обязательна.
Релиз
Сэмпл: https://yadi.sk/i/VNQALKyF3PpbA7
Качество видео: VHSRip
Формат видео: AVI
Видео: 704x528 (1.33:1), 25 fps, XviD build 73 ~1702 kbps avg, 0.18 bit/pixel
Аудио: 48 kHz, AC3 Dolby Digital, 2/0 (L,R) ch, ~192 kbps

MediaInfo

Скала Малхолланд - Mulholland Falls (by alenavova).avi
Format : AVI
Format/Info : Audio Video Interleave
File size : 1.42 GiB
Duration : 1 h 46 min
Overall bit rate : 1 905 kb/s
Movie name : Скала Малхолланд - Mulholland Falls (by alenavova)
Director : by alenavova
Writing application : VirtualDubMod 1.5.10.3 | www.virtualdub-fr.org || (build 2550/release)
Copyright : Edich2
Comment : erzsebet.org
Video
ID : 0
Format : MPEG-4 Visual
Format profile : Advanced [email protected]
Format settings, BVOP : 2
Format settings, QPel : No
Format settings, GMC : No warppoints
Format settings, Matrix : Custom
Codec ID : XVID
Codec ID/Hint : XviD
Duration : 1 h 46 min
Bit rate : 1 703 kb/s
Width : 704 pixels
Height : 528 pixels
Display aspect ratio : 4:3
Frame rate : 25.000 FPS
Color space : YUV
Chroma subsampling : 4:2:0
Bit depth : 8 bits
Scan type : Progressive
Compression mode : Lossy
Bits/(Pixel*Frame) : 0.183
Stream size : 1.27 GiB (89%)
Writing library : XviD 73
Audio
ID : 1
Format : AC-3
Format/Info : Audio Coding 3
Format settings, Endianness : Big
Codec ID : 2000
Duration : 1 h 46 min
Bit rate mode : Constant
Bit rate : 192 kb/s
Channel(s) : 2 channels
Channel positions : Front: L R
Sampling rate : 48.0 kHz
Frame rate : 31.250 FPS (1536 spf)
Bit depth : 16 bits
Compression mode : Lossy
Stream size : 146 MiB (10%)
Alignment : Split accross interleaves
Interleave, duration : 40 ms (1.00 video frame)
Interleave, preload duratio : 500 ms
Service kind : Complete Main

Скриншоты


If your ratio falls below 0.3, you will not be able to download Torrents! More about the rating.

[erzsebet.pl].t665.torrent
Torrent: Registered   [ 2017-12-02 17:17 ]

Download .torrent

Download

15 KB

Status: checked
Completed: 16 times
Size: 1.42 GB
terms.php

#1

02-Dec-2017 17:17

[Profile]  [PM] 
Display posts:    

You cannot post new topics in this forum
You cannot reply to topics in this forum
You cannot edit your posts in this forum
You cannot delete your posts in this forum
You cannot vote in polls in this forum
You cannot attach files in this forum
You can download files in this forum
User agreement
For copyright holders
Advertise on this site

Скачайте на халяву через торрент на трекере erzsebet.pl

!ATTENTION!
The site does not give electronic versions of products, and is engaged only in a collecting and cataloguing of the references sent and published at a forum by our readers. If you are the legal owner of any submitted material and do not wish that the reference to it was in our catalogue, contact us and we shall immediately remove her. Files for an exchange on tracker are given by users of a site, and the administration does not bear the responsibility for their maintenance. The request to not fill in the files protected by copyrights, and also files of the illegal maintenance!