Нагой рассвет / The Naked Dawn (Эдгар Дж. Улмер / Edgar G. Ulmer) [1955, США, боевик, драма, мелодрама, криминал, вестерн, DVDRip] VO (Кир Дмитриев) + Sub Rus (rasist) + Original Eng

DL-List and Torrent activity
Size:  1.1 GB   |    Registered:  2 years 9 months   |    Completed:  16 times
Seeders:  1  
 
   
 
 

erzsebet.org ®

Longevity:
2 years 9 months
Posts:
47596

[Quote] 

Нагой рассвет / The Naked Dawn
Страна: США
Жанр: боевик, драма, мелодрама, криминал, вестерн
Год выпуска: 1955
Продолжительность: 01:18:37
Перевод: Одноголосый закадровый - Кир Дмитриев
Субтитры: русские(rasist)
Оригинальная аудиодорожка: английский
Режиссер: Эдгар Дж. Улмер / Edgar G. Ulmer
В ролях: Артур Кеннеди, Бетта Ст. Джон, Юджин Иглесиас, Чарлита, Рой Энджел, Тони Мартинес, Фрэнсис МакДональд
Описание: Сюжет киноленты посвящен бедному, но гордому крестьянину Мануэлю и его жене Марии. Поддавшись уговорам бродяги Сантьяго Мануэль соглашается участвовать в грабеже. Ослеплённый перспективой неисчислимого богатства, Мануэль замышляет убийство своего нового друга. Тем временем Мария увлечена красивым бандитом и готова бежать с ним от жестокого мужа ...-- --Фильм переведен и озвучен специально для: 7букв Вестерн / группа Джесси Джеймса.
Отдельная благодарность Alassea за предоставленную русскую звуковую дорожку и субтитры.
Перевод: rasist.
Закадровый текст: Кир Дмитриев.--The Naked Dawn_(1955)_DVDRip_Sample_.avi--Качество видео: DVDRip
Формат видео: AVI
Видео: 608x464 (1.31:1), 25 fps, XviD build 50 ~1667 kbps avg, 0.24 bit/pixel
Аудио 1: 48 kHz, MPEG Layer 3, 2 ch, ~160.00 kbps avg, Русский
Аудио 2: 48 kHz, MPEG Layer 3, 2 ch, ~160.00 kbps avg, Английский
Формат субтитров: softsub (SRT)

AviInfo

File: The Naked Dawn_(1955)_DVDRip_.avi
Title: The Naked Dawn (1955)
Author: Edgar G. Ulmer
Genre: Action, Crime, Drama
Category: Movie
Comment: VO (Кир Дмитриев) + Original ENG
FileSize: 1126.10 Mb ( 1 180 798 976 bytes )
Play length: 01:18:37.399 (117935 frames)
Subtitles: RUS_(rasist)_ (SubRip format)
Video: 608x464 (1.31:1), 25 fps, XviD build 50 ~1667 kbps avg, 0.24 bit/pixel
Audio #1: 48 kHz, MPEG Layer 3, 2 ch, ~160.00 kbps avg
Audio #2: 48 kHz, MPEG Layer 3, 2 ch, ~160.00 kbps avg

MediaInfo

General
Complete name : I:\111\z_D_Disk\The Naked Dawn_(1955)_DVDRip_\The Naked Dawn_(1955)_DVDRip_.avi
Format : AVI
Format/Info : Audio Video Interleave
File size : 1.10 GiB
Duration : 1 h 18 min
Overall bit rate : 2 002 kb/s
Movie name : The Naked Dawn (1955)
Director : Edgar G. Ulmer
Genre : Action, Crime, Drama
Writing application : VirtualDubMod 1.5.10.3 | www.virtualdub-fr.org || (build 2550/release)
Original source form/Name : Movie
Comment : VO (Кир Дмитриев) + Original ENG
Video
ID : 0
Format : MPEG-4 Visual
Format profile : Advanced [email protected]
Format settings, BVOP : 1
Format settings, QPel : No
Format settings, GMC : No warppoints
Format settings, Matrix : Default (MPEG)
Codec ID : XVID
Codec ID/Hint : XviD
Duration : 1 h 18 min
Bit rate : 1 668 kb/s
Width : 608 pixels
Height : 464 pixels
Display aspect ratio : 4:3
Frame rate : 25.000 FPS
Color space : YUV
Chroma subsampling : 4:2:0
Bit depth : 8 bits
Scan type : Progressive
Compression mode : Lossy
Bits/(Pixel*Frame) : 0.236
Stream size : 938 MiB (83%)
Writing library : XviD 1.2.1 (UTC 2008-12-04)
Audio #1
ID : 1
Format : MPEG Audio
Format version : Version 1
Format profile : Layer 3
Codec ID : 55
Codec ID/Hint : MP3
Duration : 1 h 18 min
Bit rate mode : Constant
Bit rate : 160 kb/s
Channel(s) : 2 channels
Sampling rate : 48.0 kHz
Compression mode : Lossy
Stream size : 90.0 MiB (8%)
Alignment : Aligned on interleaves
Interleave, duration : 40 ms (1.00 video frame)
Interleave, preload duratio : 504 ms
Audio #2
ID : 2
Format : MPEG Audio
Format version : Version 1
Format profile : Layer 3
Codec ID : 55
Codec ID/Hint : MP3
Duration : 1 h 18 min
Bit rate mode : Constant
Bit rate : 160 kb/s
Channel(s) : 2 channels
Sampling rate : 48.0 kHz
Compression mode : Lossy
Stream size : 90.0 MiB (8%)
Alignment : Aligned on interleaves
Interleave, duration : 40 ms (1.00 video frame)
Interleave, preload duratio : 504 ms

If your ratio falls below 0.3, you will not be able to download Torrents! More about the rating.

[erzsebet.pl].t67.torrent
Torrent: Registered   [ 2017-12-02 15:58 ]

Download .torrent

Download

12 KB

Status: checked
Completed: 16 times
Size: 1.1 GB
terms.php

#1

02-Dec-2017 15:57

[Profile]  [PM] 
Display posts:    

You cannot post new topics in this forum
You cannot reply to topics in this forum
You cannot edit your posts in this forum
You cannot delete your posts in this forum
You cannot vote in polls in this forum
You cannot attach files in this forum
You can download files in this forum
User agreement
For copyright holders
Advertise on this site

Скачайте на халяву через торрент на трекере erzsebet.pl

!ATTENTION!
The site does not give electronic versions of products, and is engaged only in a collecting and cataloguing of the references sent and published at a forum by our readers. If you are the legal owner of any submitted material and do not wish that the reference to it was in our catalogue, contact us and we shall immediately remove her. Files for an exchange on tracker are given by users of a site, and the administration does not bear the responsibility for their maintenance. The request to not fill in the files protected by copyrights, and also files of the illegal maintenance!