Харви / Harvey (Джордж Шефер / George Schaefer) [1996, США, Фантастическая комедия, DVDRip] AVO (Александр Кашкин (Первомайский)) + Original Eng

DL-List and Torrent activity
Size:  1.25 GB   |    Registered:  2 years 9 months   |    Completed:  16 times
Seeders:  8   Leechers:  1   Show peers in full details
 
   
 
 

erzsebet.org ®

Longevity:
2 years 9 months
Posts:
47596

[Quote] 

Харви / Harvey
Страна: США
Жанр: Фантастическая комедия
Год выпуска: 1996
Продолжительность: 01:31:44
Перевод: Авторский (одноголосый закадровый) Александр Кашкин (Первомайский)
Субтитры: нет
Оригинальная аудиодорожка: английский
Режиссер: Джордж Шефер / George Schaefer
В ролях: Гарри Андерсон
Лесли Нильсен
Свузи Кёрц
Джонатан Бэнкс
Джессика Хехт
Уильям Шэллерт
Лиза Экей
Джим О’Хейр
Роберт Уизден
Линда Бойд
Описание: Харви-американский фантастический комедийный фильм 1996 года – это римейк классического фильма 1950 года (в главной роли Джеймс Стюарт) по одноименной пьесе Мэри Чейз. Телевизионная экранизация была снята Джорджем Шефером (его финальный кинопроект), где снимался Гарри Андерсон в роли эксцентричного Элвуда П. Дауда, Лесли Нильсен и Свузи Курц. Хотя фильм был снят в 1996 году, он пролежал на полке до 18 июля 1999 года, именно, когда он был транслирован CBS, через два года после смерти Шефера. Ну а российские видеопираты, получив каким-то образом копию с телеэфира, фильм перевели и распространили на видеокассетах.
Сюжет:
Праздный забулдыга Элвуд Дауд (Джимми Стюарт) в 40 лет живёт вместе с пожилой сестрой (Джозефин Халл). Он считает своим неразлучным спутником двухметрового кролика по имени Харви, которого, кроме него, не видит больше никто. Сестра пытается выдать замуж свою великовозрастную дочь, однако присутствие в доме странного дядюшки с приятелем-невидимкой путает все её планы. Потеряв терпение, сестра принимает решение сдать Элвина в сумасшедший дом, но после признания о том, что ей тоже временами мерещится Харви, попадает туда сама. Следующим приятелем невидимого кролика-гиганта становится заведующий сумасшедшим домом…
Доп. информация: Дорожка с А. Кашкиным синхронизирована и наложена ale_x2008 при помощи Adobe Audition, Sony Vegas и VirtualDubMod.
За оцифрованную с VHS дорожку благодарим - RITONIS
Релиз
Сэмпл: https://yadi.sk/i/SH6P9NQ_3PofM3
Качество видео: DVDRip by CG
Формат видео: AVI
Видео: XviD build 47, 640x480 (1.33:1), 23.976 fps, 1547 kbps avg, 0.21 bit/pixel
Аудио: AC3 Dolby Digital, 48000Hz 2/0 (L,R) ch (mono), 192.00 kbps avg
Аудио 2: 48 kHz, MPEG Layer 3, 2 ch, ~192.00 kbps avg Eng

MediaInfo

Харви (Harvey) [by ale_x2008].avi
Format : AVI
Format/Info : Audio Video Interleave
File size : 1.25 GiB
Duration : 1 h 31 min
Overall bit rate : 1 946 kb/s
Writing application : VirtualDubMod 1.5.10.2 (build 2540/release)
Writing library : VirtualDubMod build 2540/release
Video
ID : 0
Format : MPEG-4 Visual
Format profile : Advanced [email protected]
Format settings, BVOP : 1
Format settings, QPel : No
Format settings, GMC : No warppoints
Format settings, Matrix : Default (MPEG)
Codec ID : XVID
Codec ID/Hint : XviD
Duration : 1 h 31 min
Bit rate : 1 547 kb/s
Width : 640 pixels
Height : 480 pixels
Display aspect ratio : 4:3
Frame rate : 23.976 (24000/1001) FPS
Color space : YUV
Chroma subsampling : 4:2:0
Bit depth : 8 bits
Scan type : Progressive
Compression mode : Lossy
Bits/(Pixel*Frame) : 0.210
Stream size : 1 015 MiB (80%)
Writing library : XviD 1.2.0.dev47 (UTC 2006-11-01)
Audio #1
ID : 1
Format : AC-3
Format/Info : Audio Coding 3
Format settings, Endianness : Big
Codec ID : 2000
Duration : 1 h 31 min
Bit rate mode : Constant
Bit rate : 192 kb/s
Channel(s) : 2 channels
Channel positions : Front: L R
Sampling rate : 48.0 kHz
Frame rate : 31.250 FPS (1536 spf)
Bit depth : 16 bits
Compression mode : Lossy
Stream size : 126 MiB (10%)
Alignment : Split accross interleaves
Interleave, duration : 42 ms (1.00 video frame)
Interleave, preload duratio : 500 ms
Service kind : Complete Main
Audio #2
ID : 2
Format : MPEG Audio
Format version : Version 1
Format profile : Layer 3
Mode : Joint stereo
Mode extension : MS Stereo
Codec ID : 55
Codec ID/Hint : MP3
Duration : 1 h 31 min
Bit rate mode : Constant
Bit rate : 192 kb/s
Channel(s) : 2 channels
Sampling rate : 48.0 kHz
Compression mode : Lossy
Stream size : 126 MiB (10%)
Alignment : Aligned on interleaves
Interleave, duration : 42 ms (1.00 video frame)
Interleave, preload duratio : 504 ms
Writing library : LAME3.97
Encoding settings : -m j -V 4 -q 2 -lowpass 18.6 -b 192

Скриншоты


If your ratio falls below 0.3, you will not be able to download Torrents! More about the rating.

[erzsebet.pl].t671.torrent
Torrent: Registered   [ 2017-12-02 17:17 ]

Download .torrent

Download

13 KB

Status: checked
Completed: 16 times
Size: 1.25 GB
terms.php

#1

02-Dec-2017 17:17

[Profile]  [PM] 
Display posts:    

You cannot post new topics in this forum
You cannot reply to topics in this forum
You cannot edit your posts in this forum
You cannot delete your posts in this forum
You cannot vote in polls in this forum
You cannot attach files in this forum
You can download files in this forum
User agreement
For copyright holders
Advertise on this site

Скачайте на халяву через торрент на трекере erzsebet.pl

!ATTENTION!
The site does not give electronic versions of products, and is engaged only in a collecting and cataloguing of the references sent and published at a forum by our readers. If you are the legal owner of any submitted material and do not wish that the reference to it was in our catalogue, contact us and we shall immediately remove her. Files for an exchange on tracker are given by users of a site, and the administration does not bear the responsibility for their maintenance. The request to not fill in the files protected by copyrights, and also files of the illegal maintenance!