Беглецы / Fled (Кевин Хукс / Kevin Hooks) [1996, США, боевик, BDRip] DVO (НТВ)

DL-List and Torrent activity
Size:  1.45 GB   |    Registered:  2 years 9 months   |    Completed:  16 times
Seeders:  3   Leechers:  1   Show peers in full details
 
   
 
 

erzsebet.org ®

Longevity:
2 years 9 months
Posts:
47596

[Quote] 

Беглецы / Fled
Страна: США
Жанр: боевик
Год выпуска: 1996
Продолжительность: 01:37:47
Перевод: Профессиональный (двухголосый закадровый) НТВ
Субтитры: нет
Оригинальная аудиодорожка: нет
Режиссер: Кевин Хукс / Kevin Hooks
В ролях: Лоренс Фишбёрн, Стивен Болдуин, Уилл Пэттон, Сальма Хайек, Роберт Джон Бёрк, Роберт Хукс, Виктор Риверс
Описание: Пайпер — крепкий орешек, Додж — компьютерный хакер, связь которого с 25 миллионами украденных долларов как магнит притягивает толпы наёмных убийц и коррумпированных государственных чиновников. Внезапно действие принимает неожиданный оборот…
Единственное, что может спасти беглецов, это дискета, хранящая секрет дерзкого компьютерного взлома. В опасные поиски включаются: привлекательная молодая женщина, коррумпированный судебный исполнитель, честный полицейский и кубинская мафия!
Доп. информация:
Видеоряд взят из этой раздачи http://erzsebet.org/forum/viewtopic.php?t=5336880, за которую благодарим kingsize87.
За звуковую дорожку с переводом телекомпании НТВ большое спасибо RockNIK.
За синхронизацию звуковой дорожки огромная благодарность JUSTKANT.
Данный перевод на трекере впервые!
Роли озвучивали: Борис Миронов и Наталья Власова.
Сэмпл: https://www.sendspace.com/file/ufqwa3
Качество видео: BDRip
Формат видео: AVI
Видео: 704x384, 23.976 fps, MPEG-4 Visual, 1926 Kbps, XviD 65
Аудио: 48 KHz, AC3, 2 ch, 192 Kbps

MediaInfo

General
Complete name : C:\Users\Беглецы (НТВ).avi
Format : AVI
Format/Info : Audio Video Interleave
File size : 1.45 GiB
Duration : 1h 37mn
Overall bit rate : 2 128 Kbps
Movie name : Беглецы / Fled (1996) BDRip
Genre : боевик, криминал, драма
Writing application : VirtualDubMod 1.5.10.2 (build 2540/release)
Writing library : VirtualDubMod build 2540/release
Video
ID : 0
Format : MPEG-4 Visual
Format profile : Advanced [email protected]
Format settings, BVOP : 1
Format settings, QPel : No
Format settings, GMC : No warppoints
Format settings, Matrix : Custom
Codec ID : XVID
Codec ID/Hint : XviD
Duration : 1h 37mn
Bit rate : 1 926 Kbps
Width : 704 pixels
Height : 384 pixels
Display aspect ratio : 1.85:1
Frame rate : 23.976 fps
Color space : YUV
Chroma subsampling : 4:2:0
Bit depth : 8 bits
Scan type : Progressive
Compression mode : Lossy
Bits/(Pixel*Frame) : 0.297
Stream size : 1.32 GiB (91%)
Writing library : XviD 65
Audio
ID : 1
Format : AC-3
Format/Info : Audio Coding 3
Mode extension : CM (complete main)
Format settings, Endianness : Big
Codec ID : 2000
Duration : 1h 37mn
Bit rate mode : Constant
Bit rate : 192 Kbps
Channel(s) : 2 channels
Channel positions : Front: L R
Sampling rate : 48.0 KHz
Bit depth : 16 bits
Compression mode : Lossy
Stream size : 134 MiB (9%)
Alignment : Split accross interleaves
Interleave, duration : 42 ms (1.00 video frame)
Interleave, preload duration : 500 ms

Скриншоты

If your ratio falls below 0.3, you will not be able to download Torrents! More about the rating.

[erzsebet.pl].t673.torrent
Torrent: Registered   [ 2017-12-02 17:17 ]

Download .torrent

Download

15 KB

Status: checked
Completed: 16 times
Size: 1.45 GB
terms.php

#1

02-Dec-2017 17:17

[Profile]  [PM] 
Display posts:    

You cannot post new topics in this forum
You cannot reply to topics in this forum
You cannot edit your posts in this forum
You cannot delete your posts in this forum
You cannot vote in polls in this forum
You cannot attach files in this forum
You can download files in this forum
User agreement
For copyright holders
Advertise on this site

Скачайте на халяву через торрент на трекере erzsebet.pl

!ATTENTION!
The site does not give electronic versions of products, and is engaged only in a collecting and cataloguing of the references sent and published at a forum by our readers. If you are the legal owner of any submitted material and do not wish that the reference to it was in our catalogue, contact us and we shall immediately remove her. Files for an exchange on tracker are given by users of a site, and the administration does not bear the responsibility for their maintenance. The request to not fill in the files protected by copyrights, and also files of the illegal maintenance!