Черный орел / Black Eagle / Director's cut (Эрик Карсон / Eric Karson) [1988, США, боевик, приключения, драма, BDRip] [Director's cut] AVO (Андрей Гаврилов - ранний) + AVO (неизвестный "K9 - VHS") + Original Eng

DL-List and Torrent activity
Size:  1.48 GB   |    Registered:  2 years 9 months   |    Completed:  16 times
Seeders:  3   Leechers:  1   Show peers in full details
 
   
 
 

erzsebet.org ®

Longevity:
2 years 9 months
Posts:
47596

[Quote] 

Черный орел / Black Eagle / Director's cut
Страна: США
Жанр: боевик, приключения, драма
Год выпуска: 1988
Продолжительность: 01:44:05
Перевод: Авторский (одноголосый закадровый) Андрей Гаврилов (ранний)
Перевод 2: Авторский (одноголосый закадровый) Неизвестный "K9" (VHS) (вставки с раннего Гаврилова)
Субтитры: нет
Оригинальная аудиодорожка: Английский

Режиссер: Эрик Карсон / Eric Karson
В ролях: Шо Косуги, Жан-Клод Ван Дамм, Доран Кларк, Брюс Френч, Владимир Скомаровский, Уильям Бассетт, Кейн Косуги, Шейн Косуги, Дорота Пузио
Описание: Самый современный боевой самолет американской воздушной армии F-100 с новой лазерной установкой падает в море рядом с островом Мальта - место, где также базируются советские военные силы. ЦРУ сразу же посылает туда своего самого лучшего секретного агента Кена Тани (Косуги), чтобы спасти систему еще до того, как она попадет в руки врага. Кен начинает вести войну против злодея - агента КГБ Андрея (Ван Дамм), который украл это сверхсекретное оружие.
Доп. информация: Выражаю огромную благодарность Нордеру за синхронизацию звуковой дорожки с VHS. За дорогу с VHS благодарим ALEKS KV
Сэмпл: http://multi-up.com/1174400
Качество видео: BDRip (Исходник BDRemux 1080p)
Формат видео: AVI
Видео: XviD 73, 704x384, (16:9), 23,976 fps, 1410 Кбит/с, 8 бит
Аудио: Русский (АС3, 2 ch (Front: L R), 48,0 KHz, 192 Kbps)
Аудио 2: Русский (АС3, 2 ch (Front: L R), 48,0 KHz, 192 Kbps)
Аудио 3: Английский (АС3, 2 ch (Front: L R), 48,0 KHz, 224 Kbps)

MediaInfo

Общее
Полное имя : D:\Видеофильмы\В и д е о\Черный Орел (боевик, приключения 1988 год).avi
Формат : AVI
Формат/Информация : Audio Video Interleave
Размер файла : 1,48 Гбайт
Продолжительность : 1 ч. 44 м.
Общий поток : 2037 Кбит/сек
Программа кодирования : VirtualDubMod 1.5.10.2 (build 2540/release)
Библиотека кодирования : VirtualDubMod build 2540/release
Видео
Идентификатор : 0
Формат : MPEG-4 Visual
Профиль формата : Advanced [email protected]
Параметр BVOP формата : 2
Параметр QPel формата : Нет
Параметр GMC формата : Без точки перехода
Параметр матрицы формата : Выборочная
Идентификатор кодека : XVID
Идентификатор кодека/Подсказка : XviD
Продолжительность : 1 ч. 44 м.
Битрейт : 1410 Кбит/сек
Ширина : 720 пикселей
Высота : 400 пикселей
Соотношение сторон : 16:9
Частота кадров : 23,976 (23976/1000) кадра/сек
Цветовое пространство : YUV
Субдискретизация насыщенности : 4:2:0
Битовая глубина : 8 бит
Тип развёртки : Прогрессивная
Метод сжатия : С потерями
Бит/(Пиксели*Кадры) : 0.204
Размер потока : 1,02 Гбайт (69%)
Библиотека кодирования : XviD 73
Аудио #1
Идентификатор : 1
Формат : AC-3
Формат/Информация : Audio Coding 3
Расширение режима : CM (complete main)
Параметр Endianness формата : Big
Идентификатор кодека : 2000
Продолжительность : 1 ч. 44 м.
Вид битрейта : Постоянный
Битрейт : 192 Кбит/сек
Каналы : 2 канала
Расположение каналов : Front: L R
Частота : 48,0 КГц
Частота кадров : 31,250 кадров/сек (1536 spf)
Метод сжатия : С потерями
Размер потока : 143 Мбайт (9%)
Выравнивание : Разделение по промежуткам
Продолжительность промежутка : 42 мс. (1,00 видеокадр)
Время предзагрузки промежутка : 500 мс.
Аудио #2
Идентификатор : 2
Формат : AC-3
Формат/Информация : Audio Coding 3
Расширение режима : CM (complete main)
Параметр Endianness формата : Big
Идентификатор кодека : 2000
Продолжительность : 1 ч. 44 м.
Вид битрейта : Постоянный
Битрейт : 192 Кбит/сек
Каналы : 2 канала
Расположение каналов : Front: L R
Частота : 48,0 КГц
Частота кадров : 31,250 кадров/сек (1536 spf)
Метод сжатия : С потерями
Размер потока : 143 Мбайт (9%)
Выравнивание : Разделение по промежуткам
Продолжительность промежутка : 42 мс. (1,00 видеокадр)
Время предзагрузки промежутка : 500 мс.
Аудио #3
Идентификатор : 3
Формат : AC-3
Формат/Информация : Audio Coding 3
Расширение режима : CM (complete main)
Параметр Endianness формата : Big
Идентификатор кодека : 2000
Продолжительность : 1 ч. 44 м.
Вид битрейта : Постоянный
Битрейт : 224 Кбит/сек
Каналы : 2 канала
Расположение каналов : Front: L R
Частота : 48,0 КГц
Частота кадров : 31,250 кадров/сек (1536 spf)
Метод сжатия : С потерями
Размер потока : 167 Мбайт (11%)
Выравнивание : Разделение по промежуткам
Продолжительность промежутка : 42 мс. (1,00 видеокадр)
Время предзагрузки промежутка : 500 мс.

Скриншот c названием фильма

Скриншоты

If your ratio falls below 0.3, you will not be able to download Torrents! More about the rating.

[erzsebet.pl].t674.torrent
Torrent: Registered   [ 2017-12-02 17:13 ]

Download .torrent

Download

15 KB

Status: checked
Completed: 16 times
Size: 1.48 GB
terms.php

#1

02-Dec-2017 17:12

[Profile]  [PM] 
Display posts:    

You cannot post new topics in this forum
You cannot reply to topics in this forum
You cannot edit your posts in this forum
You cannot delete your posts in this forum
You cannot vote in polls in this forum
You cannot attach files in this forum
You can download files in this forum
User agreement
For copyright holders
Advertise on this site

Скачайте на халяву через торрент на трекере erzsebet.pl

!ATTENTION!
The site does not give electronic versions of products, and is engaged only in a collecting and cataloguing of the references sent and published at a forum by our readers. If you are the legal owner of any submitted material and do not wish that the reference to it was in our catalogue, contact us and we shall immediately remove her. Files for an exchange on tracker are given by users of a site, and the administration does not bear the responsibility for their maintenance. The request to not fill in the files protected by copyrights, and also files of the illegal maintenance!