Потрошитель / Ripper Man (Фил Сирс / Phil Sears) [1995, США, Триллер, VHSRip] AVO (Юрий Сербин)

DL-List and Torrent activity
Size:  828 MB   |    Registered:  2 years 9 months   |    Completed:  16 times
Seeders:  3   Leechers:  1   Show peers in full details
 
   
 
 

erzsebet.org ®

Longevity:
2 years 9 months
Posts:
47596

[Quote] 

Потрошитель / Ripper Man
Страна: США
Жанр: Триллер
Год выпуска: 1995
Продолжительность: 01:29:17
Перевод: Авторский (одноголосый закадровый) Юрий Сербин
Субтитры: нет
Режиссер: Фил Сирс / Phil Sears
В ролях: Майк Норрис, Тимоти Боттомс, Роберт Ф. Лайонс, Чарльз Нэпьер, Брюс Лок, Кэри Скотт, София Шинас, Кэнди Мило, Патриция Норт, Брок Пирс
Описание: Полицейский по имени Майк Лазо, на время оставивший службу, выступает в ночном клубе с гипнотическими сеансами. Выступает он неудачно, и из клуба его увольняют. Но в тот же вечер он встречает странного человека по имени Чарлз Уокен, который просит его загипнотизировать. Майк его гипнотизирует, тот вспоминает свое прошлое, и тут-то оказывается, что его товарищ был потрошителем. Потрошителем он, видимо, и остался, и до сих пор режет девушек, будто они трупы в анатомическом театре. И остановить его может лишь Майк.
Доп. информация: Дорожка с Ю. Сербиным синхронизирована под данный видеоряд и наложена ale_x2008 при помощи Sony Vegas и VirtualDubMod.
За предоставленную дорожку из сети благодарим - JekaPro12
Релиз
Сэмпл: https://yadi.sk/i/O4Xo_abB3PhtFM
Качество видео: VHSRip (Видеоряд с попкорна)
Формат видео: AVI
Видео: XviD build 50, 704x560 (1.26:1), 25 fps, 1093 kbps avg, 0.11 bit/pixel
Аудио: AC3 Dolby Digital, 48000Hz 2/0 (L,R) ch (mono), 192.00 kbps avg

MediaInfo

Потрошитель (Ripper Man) [by ale_x2008].avi
Format : AVI
Format/Info : Audio Video Interleave
File size : 828 MiB
Duration : 1 h 29 min
Overall bit rate : 1 296 kb/s
Movie name : Потрошитель (Ripper Man) [by ale_x2008]
Director : by ale_x2008
Writing application : VirtualDubMod 1.5.10.3 (build 2550/release)
Copyright : Edich2
Comment : erzsebet.org
Video
ID : 0
Format : MPEG-4 Visual
Format profile : Advanced [email protected]
Format settings, BVOP : 2
Format settings, QPel : No
Format settings, GMC : No warppoints
Format settings, Matrix : Default (H.263)
Codec ID : XVID
Codec ID/Hint : XviD
Duration : 1 h 29 min
Bit rate : 1 094 kb/s
Width : 704 pixels
Height : 560 pixels
Display aspect ratio : 5:4
Frame rate : 25.000 FPS
Color space : YUV
Chroma subsampling : 4:2:0
Bit depth : 8 bits
Scan type : Progressive
Compression mode : Lossy
Bits/(Pixel*Frame) : 0.111
Stream size : 699 MiB (84%)
Writing library : XviD 1.2.1 (UTC 2008-12-04)
Audio
ID : 1
Format : AC-3
Format/Info : Audio Coding 3
Format settings, Endianness : Big
Codec ID : 2000
Duration : 1 h 29 min
Bit rate mode : Constant
Bit rate : 192 kb/s
Channel(s) : 2 channels
Channel positions : Front: L R
Sampling rate : 48.0 kHz
Frame rate : 31.250 FPS (1536 spf)
Bit depth : 16 bits
Compression mode : Lossy
Stream size : 123 MiB (15%)
Alignment : Split accross interleaves
Interleave, duration : 40 ms (1.00 video frame)
Interleave, preload duratio : 500 ms
Service kind : Complete Main

If your ratio falls below 0.3, you will not be able to download Torrents! More about the rating.

[erzsebet.pl].t675.torrent
Torrent: Registered   [ 2017-12-02 17:17 ]

Download .torrent

Download

17 KB

Status: checked
Completed: 16 times
Size: 828 MB
terms.php

#1

02-Dec-2017 17:17

[Profile]  [PM] 
Display posts:    

You cannot post new topics in this forum
You cannot reply to topics in this forum
You cannot edit your posts in this forum
You cannot delete your posts in this forum
You cannot vote in polls in this forum
You cannot attach files in this forum
You can download files in this forum
User agreement
For copyright holders
Advertise on this site

Скачайте на халяву через торрент на трекере erzsebet.pl

!ATTENTION!
The site does not give electronic versions of products, and is engaged only in a collecting and cataloguing of the references sent and published at a forum by our readers. If you are the legal owner of any submitted material and do not wish that the reference to it was in our catalogue, contact us and we shall immediately remove her. Files for an exchange on tracker are given by users of a site, and the administration does not bear the responsibility for their maintenance. The request to not fill in the files protected by copyrights, and also files of the illegal maintenance!