Мои племянники / Min søsters børn (Аннелисе Реэнберг / Annelise Reenberg) [1966, Дания, семейный, комедия, DVDRip-AVC] VO + Sub Rus + Original Dan

DL-List and Torrent activity
Size:  1.45 GB   |    Registered:  2 years 9 months   |    Completed:  16 times
Seeders:  4  
 
   
 
 

erzsebet.org ®

Longevity:
2 years 9 months
Posts:
47596

[Quote] 

Мои племянники / Min søsters børn
Страна: Дания
Жанр: семейный, комедия
Год выпуска: 1966
Продолжительность: 01:51:27
Перевод: Одноголосый закадровый
Субтитры: русские, датские
Оригинальная аудиодорожка: датский
Режиссер: Аннелисе Реэнберг / Annelise Reenberg
В ролях: Микаэль Розенберг / Michael Rosenberg, Ян Приискорн-Шмидт / Jan Priiskorn Schmidt, Аксель Стрёбюе / Axel Strøbye, Джинн Дарвилл / Jeanne Darville, Уильям Розенберг / William Rosenberg, Карл Стеггер / Karl Stegger, Текла Бёсен / Thecla Boesen, Хуго Херреструп / Hugo Herrestrup и др.
Описание: Эрик Лунде - выдающийся детский психолог, он даже написал книгу о воспитании детей, вот только одна проблема - он одинок и никогда раньше не имел детей!
Поэтому, когда его сестра со своим мужем отправляются в отпуск, он добровольно берёт на себя заботу о своих шестерых племянниках - и, конечно же, пытается удержать их внимание, применяя правила, написанные в его книге! И, конечно же, все идет наперекосяк, потому что дети в реальности ведут себя не так, как написано в книге.
Сэмпл: http://multi-up.com/1174066
Качество видео: DVDRip-AVC
Формат видео: MKV
Видео: AVC at 1468 Кбит/сек : [email protected]х576 (1.333) at 25.000 fps
Аудио 1: AC-3 at 192 Кбит/сек : 2 канала, 48,0 КГц Language : ru
Аудио 2: AC-3 at 192 Кбит/сек : 2 канала, 48,0 КГц Language : da
Формат субтитров: prerendered (IDX+SUB)
Доп. информация о субтитрах: Русские (Kompot), датские отключаемые

MediaInfo

Общее
Уникальный идентификатор : 174855070979902761258617664799245794179 (0x838BDC993607195EBDB6C4A23FB6FB83)
Полное имя : F:\С моей озвучкой\Мои племянники.mkv
Формат : Matroska
Версия формата : Version 4 / Version 2
Размер файла : 1,45 Гбайт
Продолжительность : 1 ч. 51 м.
Общий поток : 1856 Кбит/сек
Дата кодирования : UTC 2017-10-30 19:24:35
Программа кодирования : mkvmerge v7.9.0 ('Birds') 64bit
Библиотека кодирования : libebml v1.3.1 + libmatroska v1.4.2 / Lavf57.41.100
ENCODING_INFO : DVD > MKV / MPEG2 > X264 CRF 21.0 SHQ / AC3 > AC3 CBR 192kbps
Видео
Идентификатор : 1
Формат : AVC
Формат/Информация : Advanced Video Codec
Профиль формата : [email protected]
Параметр CABAC формата : Да
Параметр RefFrames формата : 9 кадров
Идентификатор кодека : V_MPEG4/ISO/AVC
Продолжительность : 1 ч. 51 м.
Битрейт : 1468 Кбит/сек
Ширина : 720 пикселей
Высота : 576 пикселей
Соотношение сторон : 4:3
Режим частоты кадров : Постоянный
Частота кадров : 25,000 кадров/сек
Стандарт вещания : PAL
Цветовое пространство : YUV
Субдискретизация насыщенности : 4:2:0
Битовая глубина : 8 бит
Тип развёртки : MBAFF
Метод сохранения типа развёртки : Чередующиеся поля
Порядок развёртки : Верхнее поле первое
Бит/(Пиксели*Кадры) : 0.142
Размер потока : 1,14 Гбайт (79%)
Библиотека кодирования : x264 core 148 r2762M 90a61ec
Настройки программы : cabac=1 / ref=9 / deblock=1:-1:-1 / analyse=0x3:0x133 / me=umh / subme=10 / psy=1 / psy_rd=1.05:0.10 / mixed_ref=1 / me_range=16 / chroma_me=1 / trellis=2 / 8x8dct=1 / cqm=0 / deadzone=21,11 / fast_pskip=0 / chroma_qp_offset=-3 / threads=9 / lookahead_threads=1 / sliced_threads=0 / nr=0 / decimate=1 / interlaced=tff / bluray_compat=0 / constrained_intra=0 / bframes=6 / b_pyramid=2 / b_adapt=2 / b_bias=0 / direct=3 / weightb=1 / open_gop=0 / weightp=0 / keyint=250 / keyint_min=25 / scenecut=40 / intra_refresh=0 / rc=crf / mbtree=0 / crf=21.0 / qcomp=0.70 / qpmin=3 / qpmax=69 / qpstep=4 / ip_ratio=1.40 / pb_ratio=1.30 / aq=2:1.00
Default : Да
Forced : Нет
Аудио #1
Идентификатор : 2
Формат : AC-3
Формат/Информация : Audio Coding 3
Параметр Endianness формата : Big
Идентификатор кодека : A_AC3
Продолжительность : 1 ч. 51 м.
Вид битрейта : Постоянный
Битрейт : 192 Кбит/сек
Каналы : 2 канала
Расположение каналов : Front: L R
Частота : 48,0 КГц
Частота кадров : 31,250 кадров/сек (1536 SPF)
Битовая глубина : 16 бит
Метод сжатия : С потерями
Размер потока : 153 Мбайт (10%)
Язык : Russian
ServiceKind/String : Complete Main
Default : Да
Forced : Нет
Аудио #2
Идентификатор : 3
Формат : AC-3
Формат/Информация : Audio Coding 3
Параметр Endianness формата : Big
Идентификатор кодека : A_AC3
Продолжительность : 1 ч. 51 м.
Вид битрейта : Постоянный
Битрейт : 192 Кбит/сек
Каналы : 2 канала
Расположение каналов : Front: L R
Частота : 48,0 КГц
Частота кадров : 31,250 кадров/сек (1536 SPF)
Битовая глубина : 16 бит
Метод сжатия : С потерями
Размер потока : 153 Мбайт (10%)
Язык : Danish
ServiceKind/String : Complete Main
Default : Нет
Forced : Нет
Текст #1
Идентификатор : 4
Формат : UTF-8
Идентификатор кодека : S_TEXT/UTF8
Идентификатор кодека/Информация : UTF-8 Plain Text
Продолжительность : 1 ч. 49 м.
Битрейт : 82 бит/сек
ElementCount : 1052
Размер потока : 65,8 Кбайт (0%)
Язык : Russian
Default : Да
Forced : Нет
Текст #2
Идентификатор : 5
Формат : UTF-8
Идентификатор кодека : S_TEXT/UTF8
Идентификатор кодека/Информация : UTF-8 Plain Text
Продолжительность : 1 ч. 47 м.
Битрейт : 55 бит/сек
ElementCount : 1059
Размер потока : 43,2 Кбайт (0%)
Язык : Danish
Default : Нет
Forced : Нет
Текст #3
Идентификатор : 6
Формат : VobSub
Режим смешивания : zlib
Идентификатор кодека : S_VOBSUB
Идентификатор кодека/Информация : Picture based subtitle format used on DVDs
Продолжительность : 1 ч. 47 м.
Битрейт : 1777 бит/сек
ElementCount : 1086
Размер потока : 1,36 Мбайт (0%)
Язык : Danish
Default : Нет
Forced : Нет
Меню
00:00:00.000 : :Глава 1
00:05:52.040 : :Глава 2
00:12:53.760 : :Глава 3
00:18:32.280 : :Глава 4
00:25:29.840 : :Глава 5
00:31:51.520 : :Глава 6
00:40:00.840 : :Глава 7
00:45:19.080 : :Глава 8
00:51:57.920 : :Глава 9
00:58:28.360 : :Глава 10
01:05:32.160 : :Глава 11
01:13:09.760 : :Глава 12
01:22:39.160 : :Глава 13
01:27:18.920 : :Глава 14
01:31:17.080 : :Глава 15
01:36:09.320 : :Глава 16
01:43:02.200 : :Глава 17
01:48:22.000 : :Глава 18

Скриншоты

If your ratio falls below 0.3, you will not be able to download Torrents! More about the rating.

[erzsebet.pl].t677.torrent
Torrent: Registered   [ 2017-12-02 17:13 ]

Download .torrent

Download

15 KB

Status: checked
Completed: 16 times
Size: 1.45 GB
terms.php

#1

02-Dec-2017 17:12

[Profile]  [PM] 
Display posts:    

You cannot post new topics in this forum
You cannot reply to topics in this forum
You cannot edit your posts in this forum
You cannot delete your posts in this forum
You cannot vote in polls in this forum
You cannot attach files in this forum
You can download files in this forum
User agreement
For copyright holders
Advertise on this site

Скачайте на халяву через торрент на трекере erzsebet.pl

!ATTENTION!
The site does not give electronic versions of products, and is engaged only in a collecting and cataloguing of the references sent and published at a forum by our readers. If you are the legal owner of any submitted material and do not wish that the reference to it was in our catalogue, contact us and we shall immediately remove her. Files for an exchange on tracker are given by users of a site, and the administration does not bear the responsibility for their maintenance. The request to not fill in the files protected by copyrights, and also files of the illegal maintenance!