Ночи в стиле буги / Boogie Nights (Пол Томас Андерсон / Paul Thomas Anderson) [1997, США, драма, биография, HDRip] DVO (Союз Видео)

DL-List and Torrent activity
Size:  1.46 GB   |    Registered:  2 years 9 months   |    Completed:  16 times
Seeders:  3  
 
   
 
 

erzsebet.org ®

Longevity:
2 years 9 months
Posts:
47596

[Quote] 

Ночи в стиле буги / Boogie Nights
Год выпуска: 1997
Страна: США
Жанр: драма, биография
Продолжительность: 02:35:35
Перевод: Профессиональный (двухголосый закадровый) - Союз Видео
Субтитры: нет
Режиссер: Пол Томас Андерсон / Paul Thomas Anderson
В ролях: Марк Уолберг (Eddie Adams / Dirk Diggler), Джулианна Мур / Amber Waves, Берт Рейнолдс / Jack Horner, Дон Чидл / Buck Swope, Джон Си Райли / Reed Rothchild, Уильям Х. Мэйси / Little Bill, Хизер Грэм / Rollergirl, Филип Сеймур Хоффман / Scotty J., Луис Гусман / Maurice TT Rodriguez, Филип Бейкер Холл / Floyd Gondolli-Мировая премьера: 11 сентября 1997-Описание: Действие фильма происходит в конце 70-х в Америке, в годы так называемой сексуальной революции. Немолодой режиссер Джек Хорнер, занимающийся съемками порнофильмов, в ресторане примечает семнадцатилетнего парня, мойщика посуды Эдди, который может подойти для его работы. Честолюбивого юношу природа щедро наделила такими исключительными физиологическими качествами, без которых в порноиндустрии делать нечего. А дальше начинается обучение и становление "звезды". Взяв псевдоним Дирк Дигглер, Эдди становится экранным суперлюбовником, наделенным отличными внешними и актерскими данными. За популярностью приходит все, что сопутствует славе - роскошь, наркотики, женщины и последующее падение в бездну реальности, такой далекой от киношного рая.-Огромная благодарность:
Neronastik - видеоряд.
RockNIK - личная оцифровка звука со своей лицензионной видеокассеты от видеокомпании "Союз Видео".
JUSTKANT - синхронизация перевода.-ДАННЫЙ ПЕРЕВОД НА ТРЕКЕРЕ ПОЯВЛЯЕТСЯ ВПЕРВЫЕ.
Текст читают Александр Рахленко и Любовь Германова.-
Рейтинг

MPAA: R - Лицам до 17 лет обязательно присутствие взрослого.-Качество видео: HDRip
Формат видео: AVI -> //Сэмпл//
Видео: XviD, 720x304 (2.35:1), 23.976 fps, 1144 kbps
Аудио:
1 - 48 khz, AC3 Dolby Digital, 2/0 (L,R) ch, ~192 kbps [Союз Видео] VHSRip

MediaInfo

General
Complete name : D:\Ночи в стиле буги (Союз Видео).avi
Format : AVI
Format/Info : Audio Video Interleave
File size : 1.46 GiB
Duration : 2 h 35 min
Overall bit rate : 1 345 kb/s
Movie name : Ночи в стиле буги / Boogie Nights (Союз Видео)
Director : JUSTKANT
Writing application : VirtualDubModRus 1.5.10.2 (build 2542/release)
Copyright : Качество звука: VHSRip (RockNIK)
Video
ID : 0
Format : MPEG-4 Visual
Format profile : Advanced [email protected]
Format settings, BVOP : 2
Format settings, QPel : No
Format settings, GMC : No warppoints
Format settings, Matrix : Custom
Codec ID : XVID
Codec ID/Hint : XviD
Duration : 2 h 35 min
Bit rate : 1 144 kb/s
Width : 720 pixels
Height : 304 pixels
Display aspect ratio : 2.35:1
Frame rate : 23.976 (24000/1001) FPS
Color space : YUV
Chroma subsampling : 4:2:0
Bit depth : 8 bits
Scan type : Progressive
Compression mode : Lossy
Bits/(Pixel*Frame) : 0.218
Stream size : 1.24 GiB (85%)
Writing library : XviD 1.2.1 (UTC 2008-12-04)
Audio
ID : 1
Format : AC-3
Format/Info : Audio Coding 3
Format settings, Endianness : Big
Codec ID : 2000
Duration : 2 h 35 min
Bit rate mode : Constant
Bit rate : 192 kb/s
Channel(s) : 2 channels
Channel positions : Front: L R
Sampling rate : 48.0 kHz
Frame rate : 31.250 FPS (1536 SPF)
Bit depth : 16 bits
Compression mode : Lossy
Stream size : 214 MiB (14%)
Alignment : Split accross interleaves
Interleave, duration : 42 ms (1.00 video frame)
Interleave, preload duratio : 500 ms
Title : Союз Видео: Александр Рахленко и Любовь Германова
Service kind : Complete Main

Скриншот c названием фильма

Скриншоты

If your ratio falls below 0.3, you will not be able to download Torrents! More about the rating.

[erzsebet.pl].t680.torrent
Torrent: Registered   [ 2017-12-02 17:17 ]

Download .torrent

Download

15 KB

Status: checked
Completed: 16 times
Size: 1.46 GB
terms.php

#1

02-Dec-2017 17:17

[Profile]  [PM] 
Display posts:    

You cannot post new topics in this forum
You cannot reply to topics in this forum
You cannot edit your posts in this forum
You cannot delete your posts in this forum
You cannot vote in polls in this forum
You cannot attach files in this forum
You can download files in this forum
User agreement
For copyright holders
Advertise on this site

Скачайте на халяву через торрент на трекере erzsebet.pl

!ATTENTION!
The site does not give electronic versions of products, and is engaged only in a collecting and cataloguing of the references sent and published at a forum by our readers. If you are the legal owner of any submitted material and do not wish that the reference to it was in our catalogue, contact us and we shall immediately remove her. Files for an exchange on tracker are given by users of a site, and the administration does not bear the responsibility for their maintenance. The request to not fill in the files protected by copyrights, and also files of the illegal maintenance!