Скины / Бритоголовые / Romper Stomper (Джеффри Райт / Geoffrey Wright) [1992, Австралия, Драма, BDRip] VO (Леша-прапорщик) + Original Eng

DL-List and Torrent activity
Size:  1.45 GB   |    Registered:  2 years 9 months   |    Completed:  16 times
Seeders:  2  
 
   
 
 

erzsebet.org ®

Longevity:
2 years 9 months
Posts:
47596

[Quote] 

Скины / Бритоголовые / Romper Stomper
«You've never seen anything like it»
Страна: Австралия
Жанр: Драма
Год выпуска: 1992
Продолжительность: 01:32:40
Перевод: Одноголосый закадровый Леша-прапорщик
Субтитры: нет
Оригинальная аудиодорожка: английский
Режиссер: Джеффри Райт / Geoffrey Wright
В ролях: Рассел Кроу, Дэниэл Поллок, Жаклин МакКензи, Алекс Скотт, Ли Расселл, Дэниэл Уилли, Джеймс МакКенна, Эрик Мьюек, Фрэнк Мэгри, Кристофер МакЛин
Описание: Неонацистская группа молодежи терроризирует азиатское население Мельбурна, и в беспрерывный поток насилия вписана любовная история. На страшных, лысых мордах прорезаются человеческие черты, покрытые татуировками куски мяса образуют человеческие тела.
Азиаты покупают клуб, который немедленно с дикой ненавистью «разносят» белые, и дело здесь, кажется, не просто в цвете кожи. Азиаты в огромном количестве налетают со всех сторон, как из-под земли, и одерживают победу.
Это война, война за выживание нации против нации на одной территории. Новенькая в банде становится между двумя друзьями. Потрясающая драма ненависти, насилия, отчаяния и любви талантливо поднимает тему на уровень искусства.
Доп. информация: Дорожка с Лешей-прапорщиком синхронизирована и наложена ale_x2008 при помощи Adobe Audition, Sony Vegas и VirtualDubMod.
За оцифрованную с VHS дорожку благодарим - alenavova
Релиз
Сэмпл: https://yadi.sk/i/hEGgU3zu3Pj3Bp
Качество видео: BDRip
Формат видео: AVI
Видео: XviD build 65, 704x384 (1.83:1), 24 fps, 1844 kbps avg, 0.28 bit/pixel
Аудио: AC3 Dolby Digital, 48000Hz 2/0 (L,R) ch (mono), 192.00 kbps avg
Аудио 2: AC3 Dolby Digital, 48000Hz 2/0 (L,R) ch, 192.00 kbps avg

MediaInfo

Бритоголовые - Romper Stomper (by ale_x2008).avi
Format : AVI
Format/Info : Audio Video Interleave
File size : 1.45 GiB
Duration : 1 h 32 min
Overall bit rate : 2 243 kb/s
Movie name : Скины / Romper Stomper (1992) BDRip
Director : kingsize87
Writing application : VirtualDubMod 1.5.10.2 (build 2540/release)
Copyright : ale_x2008 | Edich2
Comment : erzsebet.org
Video
ID : 0
Format : MPEG-4 Visual
Format profile : Advanced [email protected]
Format settings, BVOP : 1
Format settings, QPel : No
Format settings, GMC : No warppoints
Format settings, Matrix : Custom
Codec ID : XVID
Codec ID/Hint : XviD
Duration : 1 h 32 min
Bit rate : 1 845 kb/s
Width : 704 pixels
Height : 384 pixels
Display aspect ratio : 1.85:1
Frame rate : 24.000 FPS
Color space : YUV
Chroma subsampling : 4:2:0
Bit depth : 8 bits
Scan type : Progressive
Compression mode : Lossy
Bits/(Pixel*Frame) : 0.284
Stream size : 1.19 GiB (82%)
Writing library : XviD 65
Audio #1
ID : 1
Format : AC-3
Format/Info : Audio Coding 3
Format settings, Endianness : Big
Codec ID : 2000
Duration : 1 h 32 min
Bit rate mode : Constant
Bit rate : 192 kb/s
Channel(s) : 2 channels
Channel positions : Front: L R
Sampling rate : 48.0 kHz
Frame rate : 31.250 FPS (1536 spf)
Bit depth : 16 bits
Compression mode : Lossy
Stream size : 127 MiB (9%)
Alignment : Split accross interleaves
Interleave, duration : 42 ms (1.00 video frame)
Interleave, preload duratio : 500 ms
Service kind : Complete Main
Audio #2
ID : 2
Format : AC-3
Format/Info : Audio Coding 3
Format settings, Endianness : Big
Codec ID : 2000
Duration : 1 h 32 min
Bit rate mode : Constant
Bit rate : 192 kb/s
Channel(s) : 2 channels
Channel positions : Front: L R
Sampling rate : 48.0 kHz
Frame rate : 31.250 FPS (1536 spf)
Bit depth : 16 bits
Compression mode : Lossy
Stream size : 127 MiB (9%)
Alignment : Split accross interleaves
Interleave, duration : 42 ms (1.00 video frame)
Interleave, preload duratio : 500 ms
Service kind : Complete Main

Скриншоты


If your ratio falls below 0.3, you will not be able to download Torrents! More about the rating.

[erzsebet.pl].t686.torrent
Torrent: Registered   [ 2017-12-02 17:17 ]

Download .torrent

Download

15 KB

Status: checked
Completed: 16 times
Size: 1.45 GB
terms.php

#1

02-Dec-2017 17:17

[Profile]  [PM] 
Display posts:    

You cannot post new topics in this forum
You cannot reply to topics in this forum
You cannot edit your posts in this forum
You cannot delete your posts in this forum
You cannot vote in polls in this forum
You cannot attach files in this forum
You can download files in this forum
User agreement
For copyright holders
Advertise on this site

Скачайте на халяву через торрент на трекере erzsebet.pl

!ATTENTION!
The site does not give electronic versions of products, and is engaged only in a collecting and cataloguing of the references sent and published at a forum by our readers. If you are the legal owner of any submitted material and do not wish that the reference to it was in our catalogue, contact us and we shall immediately remove her. Files for an exchange on tracker are given by users of a site, and the administration does not bear the responsibility for their maintenance. The request to not fill in the files protected by copyrights, and also files of the illegal maintenance!