Поменяться местами / Trading Places (Джон Лэндис / John Landis) [1983, США, комедия, SATRip] [Fullscreen] MVO (СТС) + MVO (ОРТ) + MVO (ТВЦ) + DVO (ПВФ) + Eng + Sub Rus + Eng

DL-List and Torrent activity
Size:  3.07 GB   |    Registered:  2 years 9 months   |    Completed:  16 times
Seeders:  5   Leechers:  1   Show peers in full details
 
   
 
 

erzsebet.org ®

Longevity:
2 years 9 months
Posts:
47596

[Quote] 

Поменяться местами / Trading Places / Fullscreen
Страна: США
Жанр: комедия
Год выпуска: 1983
Продолжительность: 01:56:22
Перевод: Профессиональный (многоголосый закадровый) СТС
Перевод 2: Профессиональный (многоголосый закадровый) ОРТ
Перевод 3: Профессиональный (многоголосый закадровый) ТВЦ
Перевод 4: Профессиональный (двухголосый закадровый) ПВФ
Субтитры: русские, английские
Оригинальная аудиодорожка: английский
Режиссер: Джон Лэндис / John Landis
В ролях: Дэн Эйкройд, Эдди Мёрфи, Ральф Беллами, Дон Амичи, Денхолм Эллиот, Джейми Ли Кёртис, Кристин Холби, Пол Глисон, Альфред Дрэйк, Бо Диддли
Описание: Жизнь респектабельного бизнесмена Луиса Уинтропа Третьего, управляющего богатейшей компании с Уолл-Стрит, круто меняется после того, как его боссы, братья Дьюк, заключают необычное пари. Один из братьев посчитал, что управлять компанией может кто угодно, даже самый отъявленный и необразованный проходимец. Поставив на кон доллар, братья находят для своего эксперимента уличного мошенника Билли Рэя Валентайна, которому и предлагают возглавить компанию вместо Уинтропа. Эксцентрическая парочка Дьюков и не подозревает, что, поменяв местами проходимца и крупного бизнесмена, они рискуют гораздо больше, чем могли бы себе представить.
Доп. информация: Рип с канала СТС. Из видеоряда удалены все послерекламные вставки с названием фильма и один всплывающие анонсы. Наполнение кадра DVB отличается от DVD и BD http://screenshotcomparison.com/comparison/196028 В видеоряде сделаны вставки letterbox 16:9 с BD на выцензуренные (прелести Джейми Ли, факи и слова на букву Н) на СТС места. Добавлены другие профозвучки, дорога с озвучкой СТС заменена на многоканальную. Если кому нужны другие озвучки - подходят от BD без подгонки.
Сэмпл: http://multi-up.com/1173708
Качество видео: SATRip
Формат видео: AVI
Видео: MPEG4, XviD, 704x528 (4:3), 23.976 fps, 2 291 Kbps (0.257 bit/pixel)
Аудио 1: AC-3, 48.0 KHz, 2 ch, 192 Kbps, CBR - ОРТ
Аудио 2: AC-3, 48.0 KHz, 2 ch, 192 Kbps, CBR - ТВЦ
Аудио 3: AC-3, 48.0 KHz, 6 ch, 448 Kbps, CBR - СТС (отдельным файлом)
Аудио 4: AC-3, 48.0 KHz, 2 ch, 192 Kbps, CBR - ПВФ (отдельным файлом)
Аудио 5: AC-3, 48.0 KHz, 6 ch, 448 Kbps, CBR - английский (отдельным файлом)
Субтитры: softsub (srt)

MediaInfo

Общее
Полное имя : M:\Поменяться местами.avi
Формат : AVI
Формат/Информация : Audio Video Interleave
Профиль формата : OpenDML
Размер файла : 2,19 Гбайт
Продолжительность : 1 ч. 56 м.
Общий поток : 2693 Кбит/сек
Название фильма : Поменяться местами / Trading Places (1983)
Программа кодирования : VirtualDubMod 1.5.10.2 (build 2540/release)
Библиотека кодирования : VirtualDubMod build 2540/release
Авторское право : miha2154
Видео
Идентификатор : 0
Формат : MPEG-4 Visual
Профиль формата : Advanced [email protected]
Параметр BVOP формата : 1
Параметр QPel формата : Нет
Параметр GMC формата : Без точки перехода
Параметр матрицы формата : Выборочная
Идентификатор кодека : XVID
Идентификатор кодека/Подсказка : XviD
Продолжительность : 1 ч. 56 м.
Битрейт : 2291 Кбит/сек
Ширина : 704 пикселя
Высота : 528 пикселей
Соотношение сторон : 4:3
Частота кадров : 23,976 (23976/1000) кадра/сек
Цветовое пространство : YUV
Субдискретизация насыщенности : 4:2:0
Битовая глубина : 8 бит
Тип развёртки : Прогрессивная
Метод сжатия : С потерями
Бит/(Пиксели*Кадры) : 0.257
Размер потока : 1,86 Гбайт (85%)
Библиотека кодирования : XviD 65
Аудио #1
Идентификатор : 1
Формат : AC-3
Формат/Информация : Audio Coding 3
Расширение режима : CM (complete main)
Параметр Endianness формата : Big
Идентификатор кодека : 2000
Продолжительность : 1 ч. 56 м.
Вид битрейта : Постоянный
Битрейт : 192 Кбит/сек
Каналы : 2 канала
Расположение каналов : Front: L R
Частота : 48,0 КГц
Частота кадров : 31,250 кадров/сек (1536 spf)
Метод сжатия : С потерями
Размер потока : 160 Мбайт (7%)
Выравнивание : Разделение по промежуткам
Продолжительность промежутка : 42 мс. (1,00 видеокадр)
Время предзагрузки промежутка : 500 мс.
Заголовок : Профессиональный (многоголосый закадровый) ОРТ
Аудио #2
Идентификатор : 2
Формат : AC-3
Формат/Информация : Audio Coding 3
Расширение режима : CM (complete main)
Параметр Endianness формата : Big
Идентификатор кодека : 2000
Продолжительность : 1 ч. 56 м.
Вид битрейта : Постоянный
Битрейт : 192 Кбит/сек
Каналы : 2 канала
Расположение каналов : Front: L R
Частота : 48,0 КГц
Частота кадров : 31,250 кадров/сек (1536 spf)
Метод сжатия : С потерями
Размер потока : 160 Мбайт (7%)
Выравнивание : Разделение по промежуткам
Продолжительность промежутка : 42 мс. (1,00 видеокадр)
Время предзагрузки промежутка : 500 мс.
Заголовок : Профессиональный (многоголосый закадровый) ТВЦ

Скриншоты


торрент перезалит 28.10.17 - переделан рип: убран всплывающий анонс, добавлена английская дорожка и субтитры

If your ratio falls below 0.3, you will not be able to download Torrents! More about the rating.

[erzsebet.pl].t689.torrent
Torrent: Registered   [ 2017-12-02 17:13 ]

Download .torrent

Download

16 KB

Status: checked
Completed: 16 times
Size: 3.07 GB
terms.php

#1

02-Dec-2017 17:12

[Profile]  [PM] 
Display posts:    

You cannot post new topics in this forum
You cannot reply to topics in this forum
You cannot edit your posts in this forum
You cannot delete your posts in this forum
You cannot vote in polls in this forum
You cannot attach files in this forum
You can download files in this forum
User agreement
For copyright holders
Advertise on this site

Скачайте на халяву через торрент на трекере erzsebet.pl

!ATTENTION!
The site does not give electronic versions of products, and is engaged only in a collecting and cataloguing of the references sent and published at a forum by our readers. If you are the legal owner of any submitted material and do not wish that the reference to it was in our catalogue, contact us and we shall immediately remove her. Files for an exchange on tracker are given by users of a site, and the administration does not bear the responsibility for their maintenance. The request to not fill in the files protected by copyrights, and also files of the illegal maintenance!