Стая / Свора / The Pack (Роберт Клоуз / Robert Clouse) [1977, США, ужасы, триллер, DVDRip] AVO (Сергей Кузнецов)

DL-List and Torrent activity
Size:  1.38 GB   |    Registered:  2 years 9 months   |    Completed:  16 times
Seeders:  1  
 
   
 
 

erzsebet.org ®

Longevity:
2 years 9 months
Posts:
47596

[Quote] 

Стая / Свора / The Pack
Страна: США
Жанр: ужасы, триллер
Год выпуска: 1977
Продолжительность: 01:38:52
Перевод: Авторский (одноголосый закадровый) Сергей Кузнецов
Субтитры: нет
Режиссер: Роберт Клоуз / Robert Clouse
В ролях: Джо Дон Бэйкер, Хоуп Александр-Уиллис, Ричард Б. Шалл, Р.Г. Армстронг, Нед Вертимер, Биби Беш, Делос В. Смит мл., Ричард О`Брайэн, Шерри Майлз
Описание: Действие фильма происходит на отдалённой от города ферме, граничащей с лесом. Здесь пытается вести хозяйство семья Вилсон: супруги Карла и Адам, воспитывающие семнадцатилетнюю дочь и десятилетнего сына. Земля, которую они используют для сельского хозяйства и выпаса скота принадлежит банку, и вносить за неё платежи каждый месяц всё труднее. Причина кроется в участившихся нападениях на овец, из-за чего поголовье резко сократилось. Адаму не удаётся поймать налётчиков, хотя он предполагает, что виновники происшествий – волки, забредающие на поля из чащи. Только ситуация куда более страшная. Оказывается, неподалёку обосновалась дикая стая. Собаки уже нападали на людей, и настала пора Вилсонов познакомиться с агрессивными соседями. Хищникам мало преследовать своих потенциальных жертв на свежем воздухе, их задача – проникнуть в дом и разобраться с людьми раз и навсегда....
Герои не были готовы к нападению стаи и не знают, как себя вести в подобном случае, но у них есть оружие и желание выжить…
Доп. информация: Выражаю огромную благодарность Нордеру за синхронизацию звуковой дорожки.
Сэмпл: http://multi-up.com/1177353
Качество видео: DVDRip (Исходник - DVD Video)
Формат видео: AVI
Видео: XviD 73, 704x400, (16:9), 23,976 fps, 1801 Кбит/с, 8 бит, 0.27 bit/pixel
Аудио: Русский (АС3, 2 ch (Front: L R), 48,0 KHz, 192 Kbps)

MediaInfo

Общее
Полное имя : H:\Фильмы на трекер\Стая (ужасы, триллер 1977 год).avi
Формат : AVI
Формат/Информация : Audio Video Interleave
Размер файла : 1,38 Гбайт
Продолжительность : 1 ч. 38 м.
Общий поток : 2002 Кбит/сек
Программа кодирования : VirtualDubMod 1.5.10.3 | www.virtualdub-fr.org || (build 2550/release)
Библиотека кодирования : VirtualDubMod build 2550/release
Видео
Идентификатор : 0
Формат : MPEG-4 Visual
Профиль формата : Advanced [email protected]
Параметр BVOP формата : 2
Параметр QPel формата : Нет
Параметр GMC формата : Без точки перехода
Параметр матрицы формата : Выборочная
Идентификатор кодека : XVID
Идентификатор кодека/Подсказка : XviD
Продолжительность : 1 ч. 38 м.
Битрейт : 1801 Кбит/сек
Ширина : 704 пикселя
Высота : 400 пикселей
Соотношение сторон : 16:9
Частота кадров : 23,976 (24000/1001) кадра/сек
Цветовое пространство : YUV
Субдискретизация насыщенности : 4:2:0
Битовая глубина : 8 бит
Тип развёртки : Прогрессивная
Метод сжатия : С потерями
Бит/(Пиксели*Кадры) : 0.267
Размер потока : 1,24 Гбайт (90%)
Библиотека кодирования : XviD 73
Аудио
Идентификатор : 1
Формат : AC-3
Формат/Информация : Audio Coding 3
Расширение режима : CM (complete main)
Параметр Endianness формата : Big
Идентификатор кодека : 2000
Продолжительность : 1 ч. 38 м.
Вид битрейта : Постоянный
Битрейт : 192 Кбит/сек
Каналы : 2 канала
Расположение каналов : Front: L R
Частота : 48,0 КГц
Частота кадров : 31,250 кадров/сек (1536 spf)
Метод сжатия : С потерями
Размер потока : 136 Мбайт (10%)
Выравнивание : Разделение по промежуткам
Продолжительность промежутка : 42 мс. (1,00 видеокадр)
Время предзагрузки промежутка : 500 мс.

Скриншот c названием фильма

Скриншоты

If your ratio falls below 0.3, you will not be able to download Torrents! More about the rating.

[erzsebet.pl].t69.torrent
Torrent: Registered   [ 2017-12-02 15:58 ]

Download .torrent

Download

14 KB

Status: checked
Completed: 16 times
Size: 1.38 GB
terms.php

#1

02-Dec-2017 15:57

[Profile]  [PM] 
Display posts:    

You cannot post new topics in this forum
You cannot reply to topics in this forum
You cannot edit your posts in this forum
You cannot delete your posts in this forum
You cannot vote in polls in this forum
You cannot attach files in this forum
You can download files in this forum
User agreement
For copyright holders
Advertise on this site

Скачайте на халяву через торрент на трекере erzsebet.pl

!ATTENTION!
The site does not give electronic versions of products, and is engaged only in a collecting and cataloguing of the references sent and published at a forum by our readers. If you are the legal owner of any submitted material and do not wish that the reference to it was in our catalogue, contact us and we shall immediately remove her. Files for an exchange on tracker are given by users of a site, and the administration does not bear the responsibility for their maintenance. The request to not fill in the files protected by copyrights, and also files of the illegal maintenance!