Правдивая ложь / True Lies (Джеймс Кэмерон / James Cameron) [1994, США, боевик, VHSRip] [Full Screen] AVO (Андрей Гаврилов)

Reply to topic
DL-List and Torrent activity
Size:  5.92 GB   |    Registered:  3 years 1 month   |    Completed:  16 times

Seeder not seen: Never

 
   
 
 
Author Message

erzsebet.org ®

Longevity: 3 years 1 month

Posts: 47596

Post 02-Dec-2017 17:17

[Quote]

Правдивая ложь / True Lies
[Full Screen]
«When he said I do, he never said what he did»
Страна: США
Жанр: боевик
Год выпуска: 1994
Продолжительность: 02:14:31
Перевод: Авторский (одноголосый закадровый) Андрей Гаврилов
Субтитры: нет
Режиссер: Джеймс Кэмерон / James Cameron
В ролях: Арнольд Шварценеггер, Джейми Ли Кёртис, Том Арнольд, Билл Пэкстон, Тиа Каррере, Арт Малик, Элиза Душку, Грант Хеслов, Чарлтон Хестон...
Описание: Для своей семьи Гарри Таскер — любящий муж и отец, человек скромный и рассеянный, обыкновенный продавец компьютеров, «не вылезающий» с работы ни днем, ни ночью. Но лишь немногие знают, что на самом деле Гарри — специальный агент тайной правительственной службы, специализирующийся на особо опасных заданиях, владеющий кучей языков, всеми видами оружия и всеми возможными способами «отправки» злодеев на тот свет.
Агент Таскер и дальше продолжал бы вести двойную жизнь, если бы зловещие арабские террористы не похитили Гарри, а вместе с ним и его ничего не подозревающую жену Хэлен. Но бандиты, к своему несчастью, даже не подозревали с кем связались. И Хэлен узнала, что муж ее совсем не компьютерщик, и что она пятнадцать лет прожила с человеком, рядом с которым мускулистый Рэмбо выглядит ребенком…
Доп. информация: Оцифровка VHS (личный архив) и получение VHSRip alenavova
Эксклюзив для erzsebet.org. При размещении данного релиза на других сайтах ссылка на автора alenavova обязательна.
Релиз
Сэмпл: https://yadi.sk/i/kejK7Jyh3PhN6M
Качество видео: VHSRip
Формат видео: MPG
Видео: MPEG2 Video 720x576 (4:3) 25fps bit rate 6 305 kb/s
Аудио: MPEG Audio 48000Hz stereo 192kbps

MediaInfo

Правдивая ложь - True Lies (by alenavova).mpg
Format : MPEG-PS
File size : 5.92 GiB
Duration : 2 h 14 min
Overall bit rate mode : Variable
Overall bit rate : 6 305 kb/s
Writing library : (dvd5: Jun 16 2014)
Video
ID : 224 (0xE0)
Format : MPEG Video
Format version : Version 2
Format profile : [email protected]
Format settings, BVOP : Yes
Format settings, Matrix : Custom
Format settings, GOP : Variable
Duration : 2 h 14 min
Bit rate mode : Variable
Bit rate : 6 000 kb/s
Width : 720 pixels
Height : 576 pixels
Display aspect ratio : 4:3
Frame rate : 25.000 FPS
Standard : PAL
Color space : YUV
Chroma subsampling : 4:2:0
Bit depth : 8 bits
Scan type : Progressive
Compression mode : Lossy
Bits/(Pixel*Frame) : 0.579
Time code of first frame : 00:00:00:00
Time code source : Group of pictures header
GOP, Open/Closed : Open
GOP, Open/Closed of first f : Closed
Stream size : 5.63 GiB (95%)
Writing library : (dvd5: Jun 16 2014)
Audio
ID : 192 (0xC0)
Format : MPEG Audio
Format version : Version 1
Format profile : Layer 2
Duration : 2 h 14 min
Bit rate mode : Constant
Bit rate : 192 kb/s
Channel(s) : 2 channels
Sampling rate : 48.0 kHz
Compression mode : Lossy
Stream size : 185 MiB (3%)

Скриншоты



If your ratio falls below 0.3, you will not be able to download Torrents! More about the rating.

[erzsebet.pl].t690.torrent
Torrent: Registered [ 2017-12-02 17:17 ] · AEF7ACC8B33D214409A1AF1B6D1289A637A995D5

Download .torrent

Download

30 KB

Status: checked
Completed: 16 times
Size: 5.92 GB
terms.php
[Profile] [PM]
Display posts:    
Reply to topic

Current time is: 25-Jan 17:51

All times are UTC ± 0



You cannot post new topics in this forum
You cannot reply to topics in this forum
You cannot edit your posts in this forum
You cannot delete your posts in this forum
You cannot vote in polls in this forum
You cannot attach files in this forum
You can download files in this forum