Геркулес в Нью-Йорке / Hercules in New York (Артур Аллан Сайдлман / Arthur Allan Seidelman) [1970, США, комедия, BDRip-AVC] 3X VO (Ирэн, Дама, Заугаров) + 2X AVO (Сербин, Дольский) + Sub Eng + Original Eng

DL-List and Torrent activity
Size:  2.51 GB   |    Registered:  2 years 9 months   |    Completed:  16 times
Seeders:  2   Leechers:  2   Show peers in full details
 
   
 
 

erzsebet.org ®

Longevity:
2 years 9 months
Posts:
47596

[Quote] 

Геркулес в Нью-Йорке / Hercules in New York
Страна: США
Жанр: комедия
Год выпуска: 1970
Продолжительность: 01:32:01
Перевод 1: Одноголосый закадровый Ирэн
Перевод 2: Одноголосый закадровый неизвестной Дамы
Перевод 3: Авторский (одноголосый закадровый) Юрия Сербина
Перевод 4: Одноголосый закадровый Михаила Заугарова с немецкого дубляжа
Перевод 5: Авторский (одноголосый закадровый) Андрея Дольского
Субтитры: английские
Оригинальная аудиодорожка: английский
Режиссер: Артур Аллан Сайдлман /Arthur Allan Seidelman/
В ролях: Арнольд Шварценеггер /Arnold Schwarzenegger/, Арнолд Стэнг /Arnold Stang/, Тайна Элг /Taina Elg/, Джеймс Кэрен /James Karen/, Дебора Лумис, Эрнест Грэйвз, Тэнни МакДоналд, Хауард Берстайн, Мервин Голдсмит, Майкл Липтон
Рецензия Михаила Иванова: Незаконный сын Зевса, могучий герой Геркулес (Шварценеггер), отправляется с Олимпа в очередное приключение на Землю, где ему заморочили голову агенты по профессиональной борьбе, разного сорта "бандюки" и мафиози". Забавная комедия,дающая возможность увидеть юного Арни, дебютирующего в кино.
Описание из "Каталога аннотаций" /от ужжжастика/: В этой весёлой комедии рассказывается об удивительных приключениях героя мифов Древней Греции Геркулеса во второй половине XX века. Ему надоело жить на Олимпе среди богов, и он решил посмотреть, как живут люди в Нью-Йорке. С трудом ему удалось получить согласие отца, Зевса-громовержца, на эту поездку. В порту Нью-Йорка Геркулес знакомится с маленьким чудаковатым продавцом булочек Пресли, который решил показать ему достопримечательности города. Здесь Геркулеса ждут разные приключения, о которых с большим юмором повествуется в фильме.
Доп. информация: исходник от fatboyka; Благодарю: saavin, который подарил нам переводы Ирэн и Заугарова, и dffdfdfd за Дольского и дружественную поддержку, Kino-profan за Сербина. Дама из моей коллекции. Ирэн, Даму, Заугарова подготовил karlll ; Заугаров /+немецкий/ и Дольский /+Сербин/ с укороченной версии фильма.
Качество видео: BDRip-AVC ~Сэмпл~
Формат видео: MKV
Видео: MPEG4 (H264) 720x400 23.976fps 2752kbps
Аудио 1: 48 kHz, AC3 Dolby Digital, 2/0 (L,R) ch, ~192 kbps - Ирэн
Аудио 2: 48 kHz, AC3 Dolby Digital, 2/0 (L,R) ch, ~192 kbps - Дама
Аудио 3: 48 kHz, AC3 Dolby Digital, 2/0 (L,R) ch, ~192 kbps - english (Арни)- Аудио 4: 48 kHz, AC3 Dolby Digital, 2/0 (L,R) ch, ~192 kbps - Сербин
Аудио 5: 48 kHz, AC3 Dolby Digital, 2/0 (L,R) ch, ~192 kbps - Заугаров
Аудио 6: 48 kHz, AC3 Dolby Digital, 2/0 (L,R) ch, ~192 kbps - Дольский
Формат субтитров: softsub (SRT)

MediaInfo

Формат : Matroska
Версия формата : Version 2
Размер файла : 2,14 Гбайт
Продолжительность : 1 ч. 32 м.
Общий поток : 3330 Кбит/сек
Дата кодирования : UTC 2017-10-26 21:45:21
Программа кодирования : mkvmerge v6.9.1 ('Blue Panther') 32bit built on Apr 18 2014 18:15:44
Библиотека кодирования : libebml v1.3.0 + libmatroska v1.4.1
Видео
Идентификатор : 1
Формат : AVC
Формат/Информация : Advanced Video Codec
Профиль формата : [email protected]
Параметр CABAC формата : Да
Параметр ReFrames формата : 7 кадров
Идентификатор кодека : V_MPEG4/ISO/AVC
Продолжительность : 1 ч. 32 м.
Битрейт : 2752 Кбит/сек
Ширина : 720 пикселей
Высота : 400 пикселей
Соотношение сторон : 16:9
Режим частоты кадров : Постоянный
Частота кадров : 23,976 кадра/сек
Цветовое пространство : YUV
Субдискретизация насыщенности : 4:2:0
Битовая глубина : 8 бит
Тип развёртки : Прогрессивная
Бит/(Пиксели*Кадры) : 0.399
Размер потока : 1,73 Гбайт (81%)
Заголовок : Hercules in New York (1970)
Библиотека кодирования : x264 core 148 r2638 7599210
Настройки программы : cabac=1 / ref=7 / deblock=1:-1:-1 / analyse=0x3:0x113 / me=umh / subme=9 / psy=1 / psy_rd=1.00:0.20 / mixed_ref=1 / me_range=24 / chroma_me=1 / trellis=2 / 8x8dct=1 / cqm=0 / deadzone=21,11 / fast_pskip=0 / chroma_qp_offset=-3 / threads=6 / lookahead_threads=1 / sliced_threads=0 / nr=0 / decimate=0 / interlaced=0 / bluray_compat=0 / constrained_intra=0 / bframes=7 / b_pyramid=2 / b_adapt=2 / b_bias=0 / direct=3 / weightb=1 / open_gop=0 / weightp=2 / keyint=250 / keyint_min=23 / scenecut=40 / intra_refresh=0 / rc_lookahead=50 / rc=2pass / mbtree=1 / bitrate=2752 / ratetol=1.0 / qcomp=0.60 / qpmin=0 / qpmax=69 / qpstep=4 / cplxblur=20.0 / qblur=0.5 / vbv_maxrate=14000 / vbv_bufsize=14000 / nal_hrd=none / filler=0 / ip_ratio=1.40 / aq=1:1.00
Язык : English
Default : Да
Forced : Нет
Аудио #1
Идентификатор : 2
Формат : AC-3
Формат/Информация : Audio Coding 3
Расширение режима : CM (complete main)
Параметр Endianness формата : Big
Идентификатор кодека : A_AC3
Продолжительность : 1 ч. 32 м.
Вид битрейта : Постоянный
Битрейт : 192 Кбит/сек
Каналы : 2 канала
Расположение каналов : Front: L R
Частота : 48,0 КГц
Битовая глубина : 16 бит
Метод сжатия : С потерями
Размер потока : 126 Мбайт (6%)
Заголовок : Iren
Язык : Russian
Default : Да
Forced : Нет
Аудио #2
Идентификатор : 3
Формат : AC-3
Формат/Информация : Audio Coding 3
Расширение режима : CM (complete main)
Параметр Endianness формата : Big
Идентификатор кодека : A_AC3
Продолжительность : 1 ч. 32 м.
Вид битрейта : Постоянный
Битрейт : 192 Кбит/сек
Каналы : 2 канала
Расположение каналов : Front: L R
Частота : 48,0 КГц
Битовая глубина : 16 бит
Метод сжатия : С потерями
Размер потока : 126 Мбайт (6%)
Заголовок : Dama
Язык : Russian
Default : Нет
Forced : Нет
Аудио #3
Идентификатор : 4
Формат : AC-3
Формат/Информация : Audio Coding 3
Расширение режима : CM (complete main)
Параметр Endianness формата : Big
Идентификатор кодека : A_AC3
Продолжительность : 1 ч. 32 м.
Вид битрейта : Постоянный
Битрейт : 192 Кбит/сек
Каналы : 2 канала
Расположение каналов : Front: L R
Частота : 48,0 КГц
Битовая глубина : 16 бит
Метод сжатия : С потерями
Размер потока : 126 Мбайт (6%)
Заголовок : english
Язык : English
Default : Нет
Forced : Нет
Текст
Идентификатор : 5
Формат : UTF-8
Идентификатор кодека : S_TEXT/UTF8
Идентификатор кодека/Информация : UTF-8 Plain Text
Заголовок : english
Язык : English
Default : Да
Forced : Нет
Меню
00:00:00.000 : en:Chapter 1
00:13:07.133 : en:Chapter 2
00:29:18.567 : en:Chapter 3
00:42:05.535 : en:Chapter 4
01:00:52.403 : en:Chapter 5
01:17:36.237 : en:Chapter 6
01:32:01.000 : en:Chapter 7

Скриншоты

If your ratio falls below 0.3, you will not be able to download Torrents! More about the rating.

[erzsebet.pl].t699.torrent
Torrent: Registered   [ 2017-12-02 17:13 ]

Download .torrent

Download

13 KB

Status: checked
Completed: 16 times
Size: 2.51 GB
terms.php

#1

02-Dec-2017 17:12

[Profile]  [PM] 
Display posts:    

You cannot post new topics in this forum
You cannot reply to topics in this forum
You cannot edit your posts in this forum
You cannot delete your posts in this forum
You cannot vote in polls in this forum
You cannot attach files in this forum
You can download files in this forum
User agreement
For copyright holders
Advertise on this site

Скачайте на халяву через торрент на трекере erzsebet.pl

!ATTENTION!
The site does not give electronic versions of products, and is engaged only in a collecting and cataloguing of the references sent and published at a forum by our readers. If you are the legal owner of any submitted material and do not wish that the reference to it was in our catalogue, contact us and we shall immediately remove her. Files for an exchange on tracker are given by users of a site, and the administration does not bear the responsibility for their maintenance. The request to not fill in the files protected by copyrights, and also files of the illegal maintenance!