Бульдоги / Доктор Пополь / Docteur Popaul / Die Bulldogge / Der Halunke (Клод Шаброль / Claude Chabrol) [1972, Франция, Италия, комедия, DVDRip-AVC] VO + DVO + Original Fre

DL-List and Torrent activity
Size:  2.14 GB   |    Registered:  2 years 9 months   |    Completed:  16 times
Seeders:  1  
 
   
 
 

erzsebet.org ®

Longevity:
2 years 9 months
Posts:
47596

[Quote] 

Бульдоги / Доктор Пополь / Die Bulldogge / Docteur Popaul
Страна: Франция, Италия
Жанр: комедия
Год выпуска: 1972
Продолжительность: 1:36:55
Перевод 1: Одноголосый закадровый с немецкого
Перевод 2: Двухголосый закадровый с французского
Субтитры: нет
Оригинальная аудиодорожка: французский
Режиссер: Клод Шаброль /Claude Chabrol/
В ролях: Жан-Поль Бельмондо /Jean-Paul Belmondo/, Миа Фэрроу /Mia Farrow/, Лаура Антонелли /Laura Antonelli/, Даниэль Ивернель /Daniel Ivernel/, Даниэль Лекуртуа /Daniel Lecourtois/, Доминик Зарди /Dominique Zardi/, Анри Атталь /Henri Attal/, Луи Дурантон /Louis Duranton/, Моник Фардули /Monique Fardoulis/, Патрик Прежан /Patrick Prejean/, Мишель Пейрелон /Michel Peyrelon/, Карло Бартолотта /Carlo Bartolotta/, Кристоф Мерль /Christophe Merle/, Мадам Стеег /Madame STEEG/, Катрин Охотников /Catherine Ohotnikoff/, Майя Водечка /Maya Wodecka/, Марлен Аппельт /Marlene Appelt/
Рецензия Михаила Иванова: Экранизация рассказа Юбера Монтейле "Убийство на досуге". Черная комедия - Бельмондо охмуряет некрасивых женщин, утверждая, что любит их за моральную красоту. Нетипичная для Бельмондо роль. Поклонников-фанатов может разочаровать.
Доп. информация: исходная пятёрка из bloodsuckerz; дво и французский взял у colt451; перевод неизвестного с древней кассеты оцифровал и подготовил karlll
Качество видео: DVDRip-AVC ~Сэмпл~
Формат видео: MKV
Видео: MPEG4 (H264) 688x400 25fps 2584Kbps
Аудио 1: AC3 48KHz 2ch 192Kbps - неизвестный
Аудио 2: AC3 48KHz 2ch 192Kbps - двухголоска
Аудио 3: AC3 48KHz 2ch 192Kbps - французский

MediaInfo

Формат : Matroska
Версия формата : Version 2
Размер файла : 2,14 Гбайт
Продолжительность : 1 ч. 36 м.
Общий поток : 3161 Кбит/сек
Дата кодирования : UTC 2017-11-22 15:50:22
Программа кодирования : mkvmerge v6.9.1 ('Blue Panther') 32bit built on Apr 18 2014 18:15:44
Библиотека кодирования : libebml v1.3.0 + libmatroska v1.4.1
Видео
Идентификатор : 1
Формат : AVC
Формат/Информация : Advanced Video Codec
Профиль формата : [email protected]
Параметр CABAC формата : Да
Параметр ReFrames формата : 7 кадров
Идентификатор кодека : V_MPEG4/ISO/AVC
Продолжительность : 1 ч. 36 м.
Битрейт : 2584 Кбит/сек
Ширина : 688 пикселей
Высота : 400 пикселей
Соотношение сторон : 1,720
Режим частоты кадров : Постоянный
Частота кадров : 25,000 кадров/сек
Цветовое пространство : YUV
Субдискретизация насыщенности : 4:2:0
Битовая глубина : 8 бит
Тип развёртки : Прогрессивная
Бит/(Пиксели*Кадры) : 0.376
Размер потока : 1,71 Гбайт (80%)
Заголовок : Docteur Popaul / Die Bulldogge / Der Halunke (1972)
Библиотека кодирования : x264 core 152 r2851kMod ba24899
Настройки программы : cabac=1 / ref=7 / deblock=1:-1:-1 / analyse=0x3:0x113 / me=umh / subme=9 / psy=1 / fade_compensate=0.00 / psy_rd=1.00:0.20 / mixed_ref=1 / me_range=24 / chroma_me=1 / trellis=2 / 8x8dct=1 / cqm=0 / deadzone=21,11 / fast_pskip=0 / chroma_qp_offset=-3 / threads=6 / lookahead_threads=1 / sliced_threads=0 / nr=0 / decimate=0 / interlaced=0 / bluray_compat=0 / constrained_intra=0 / bframes=7 / b_pyramid=2 / b_adapt=2 / b_bias=0 / direct=3 / weightb=1 / open_gop=0 / weightp=2 / keyint=250 / keyint_min=25 / scenecut=40 / intra_refresh=0 / rc_lookahead=50 / rc=2pass / mbtree=1 / bitrate=2584 / ratetol=1.0 / qcomp=0.60 / qpmin=0 / qpmax=69 / qpstep=4 / cplxblur=20.0 / qblur=0.5 / vbv_maxrate=14000 / vbv_bufsize=14000 / nal_hrd=none / filler=0 / ip_ratio=1.40 / aq=1:1.00
Язык : French
Default : Да
Forced : Нет
Аудио #1
Идентификатор : 2
Формат : AC-3
Формат/Информация : Audio Coding 3
Расширение режима : CM (complete main)
Параметр Endianness формата : Big
Идентификатор кодека : A_AC3
Продолжительность : 1 ч. 36 м.
Вид битрейта : Постоянный
Битрейт : 192 Кбит/сек
Каналы : 2 канала
Расположение каналов : Front: L R
Частота : 48,0 КГц
Битовая глубина : 16 бит
Метод сжатия : С потерями
Размер потока : 133 Мбайт (6%)
Язык : Russian
Default : Да
Forced : Нет
Аудио #2
Идентификатор : 3
Формат : AC-3
Формат/Информация : Audio Coding 3
Расширение режима : CM (complete main)
Параметр Endianness формата : Big
Идентификатор кодека : A_AC3
Продолжительность : 1 ч. 36 м.
Вид битрейта : Постоянный
Битрейт : 192 Кбит/сек
Каналы : 2 канала
Расположение каналов : Front: L R
Частота : 48,0 КГц
Битовая глубина : 16 бит
Метод сжатия : С потерями
Размер потока : 133 Мбайт (6%)
Язык : Russian
Default : Нет
Forced : Нет
Аудио #3
Идентификатор : 4
Формат : AC-3
Формат/Информация : Audio Coding 3
Расширение режима : CM (complete main)
Параметр Endianness формата : Big
Идентификатор кодека : A_AC3
Продолжительность : 1 ч. 36 м.
Вид битрейта : Постоянный
Битрейт : 192 Кбит/сек
Каналы : 2 канала
Расположение каналов : Front: L R
Частота : 48,0 КГц
Битовая глубина : 16 бит
Метод сжатия : С потерями
Размер потока : 133 Мбайт (6%)
Язык : French
Default : Нет
Forced : Нет

Скриншоты

Скриншот c названием фильма /кассета/

If your ratio falls below 0.3, you will not be able to download Torrents! More about the rating.

[erzsebet.pl].t70.torrent
Torrent: Registered   [ 2017-12-02 15:58 ]

Download .torrent

Download

11 KB

Status: checked
Completed: 16 times
Size: 2.14 GB
terms.php

#1

02-Dec-2017 15:57

[Profile]  [PM] 
Display posts:    

You cannot post new topics in this forum
You cannot reply to topics in this forum
You cannot edit your posts in this forum
You cannot delete your posts in this forum
You cannot vote in polls in this forum
You cannot attach files in this forum
You can download files in this forum
User agreement
For copyright holders
Advertise on this site

Скачайте на халяву через торрент на трекере erzsebet.pl

!ATTENTION!
The site does not give electronic versions of products, and is engaged only in a collecting and cataloguing of the references sent and published at a forum by our readers. If you are the legal owner of any submitted material and do not wish that the reference to it was in our catalogue, contact us and we shall immediately remove her. Files for an exchange on tracker are given by users of a site, and the administration does not bear the responsibility for their maintenance. The request to not fill in the files protected by copyrights, and also files of the illegal maintenance!