Просчет лейтенанта Слейда / Картофельный Фриц / Potato Fritz / Zwei gegen Tod und Teufel / Montana Trap (Петер Шамони / Peter Schamoni) [1976, Германия, DVDRip] DUB + Sub Rus + Original Ger

DL-List and Torrent activity
Size:  1.37 GB   |    Registered:  2 years 9 months   |    Completed:  16 times
Seeders:  3  
 
   
 
 

erzsebet.org ®

Longevity:
2 years 9 months
Posts:
47596

[Quote] 

Просчет лейтенанта Слейда / Картофельный Фриц / Двое против смерти и дьявола
Potato Fritz / Zwei gegen Tod und Teufel / Montana Trap
Страна: Германия (ФРГ)
Студия: Eucent Film, Peter Schamoni Film
Жанр: вестерн
Год выпуска: 1976
Продолжительность: 01:24:15
Перевод 1: Профессиональный (дублированный) – советский дубляж к/с «Ленфильм»
Субтитры: русские(EvolveХ), русские(imvolk-13)(на непереведённые фрагменты), русские(4u2ges и подлинный_LVV)(на непереведённые фрагменты)
Оригинальная аудиодорожка: немецкий
Режиссер: Петер Шамони / Peter Schamoni
В ролях: Харди Крюгер, Стивен Бойд, Антон Диффринг, Фридрих фон Ледебур, Артур Браусс, Луис Барбо, Дэн ван Хузен, Пауль Брайтнер, Christiane Gött, Диана Кёрнер ...
Описание: Действие фильма происходит на Диком Западе во времена освоения его колонистами. Во время перевозки золота, предназначенного в качестве платежа индейцам за пахотные земли, на него совершается дерзкое нападение. От рук неизвестных бандитов погибает почти весь конвой. В том числе и командир отряда — капитан Генри. В живых из отряда остается только чудаковатый повар, который обустраивает ферму и растит картофель. Местные прозвали его «Картофельный Фриц». Однако, не так уж прост этот фермер, как кажется на первый взгляд…
Доп. информация: Рип сделан из этого DVD5
.-- --Potato Fritz_(Zwei gegen Tod und Teufel)_[Montana Trap] (1976)_DVDRip_Sample_.avi--CaCa48 писал(а):74055725Большое спасибо за:
- аудиодорожку с советским дубляжом - Хорошему человеку
- исходный DVD5 (http://erzsebet.org/forum/viewtopic.php?t=5178171) - rjhlb777
- синхронизацию звуковой дорожки с советским дубляжом - pmv
- русские субтитры - EvolveХ, 4u2ges и подлинный_LVV
- перевод неозвученного фрагмента с голоса – ССК+
- помощь в опознании актёров, дублировавших конкретные роли - подлинный_LVV

Фильм дублирован на киностудии «Ленфильм» и выпущен в прокат в июле 1978 года.
Режиссёр дубляжа:
Людмила Чупиро
Звукооператор: Анна Волохова
Автор русского синхронного текста: Кирилл Успенский
Редактор: Галина Чаплина
Роли дублировали: Олег Борисов, Валерий Козинец, Евгения Ветлова, Игорь Дмитриев, Александр Демьяненко, Игорь Ефимов, Лев Жуков, Михаил Васильев, Александр Липов, Пётр Кадочников--Качество видео: DVDRip
Формат видео: AVI
Видео: 688x528 (1.30:1), 25 fps, XviD build 50 ~1926 kbps avg, 0.21 bit/pixel
Аудио 1: 48 kHz, AC3 Dolby Digital, 2/0 (L,R) ch, ~192 kbps, Русский
Аудио 2: 48 kHz, AC3 Dolby Digital, 2/0 (L,R) ch, ~192 kbps, Немецкий
Формат субтитров: softsub (SRT)

AviInfo

File: Potato Fritz_(Zwei gegen Tod und Teufel)_[Montana Trap] (1976)_DVDRip_.avi
Title: Potato Fritz_(Zwei gegen Tod und Teufel)_[Montana Trap] (1976)
Author: Peter Schamoni
Copyleft: Ripped_by_rjhlb777
Genre: Comedy, Western
Category: Movie
Comment: DUB (к/с «Ленфильм») + Original Ger
FileSize: 1401.58 Mb ( 1 469 667 328 bytes )
Play length: 01:24:15.439 (126386 frames)
Subtitles: RUS_(for untranslated fragments DUB)_, RUS_(for untranslated fragments)_, RUS_(full)_ (SubRip format)
Video: 688x528 (1.30:1), 25 fps, XviD build 50 ~1926 kbps avg, 0.21 bit/pixel
Audio #1: 48 kHz, AC3 Dolby Digital, 2/0 (L,R) ch, ~192 kbps
Audio #2: 48 kHz, AC3 Dolby Digital, 2/0 (L,R) ch, ~192 kbps

MediaInfo

General
Complete name : I:\111\z_D_Disk\Potato Fritz_(Zwei gegen Tod und Teufel)_[Montana Trap] (1976)_DVDRip_\Potato Fritz_(Zwei gegen Tod und Teufel)_[Montana Trap] (1976)_DVDRip_.avi
Format : AVI
Format/Info : Audio Video Interleave
File size : 1.37 GiB
Duration : 1 h 24 min
Overall bit rate : 2 326 kb/s
Movie name : Potato Fritz_(Zwei gegen Tod und Teufel)_[Montana Trap] (1976)
Director : Peter Schamoni
Genre : Comedy, Western
Writing application : VirtualDubMod 1.5.10.3 | www.virtualdub-fr.org || (build 2550/release)
Original source form/Name : Movie
Copyright : Ripped_by_rjhlb777
Comment : DUB (к/с «Ленфильм») + Original Ger
Video
ID : 0
Format : MPEG-4 Visual
Format profile : Advanced [email protected]
Format settings, BVOP : 1
Format settings, QPel : No
Format settings, GMC : No warppoints
Format settings, Matrix : Default (MPEG)
Codec ID : XVID
Codec ID/Hint : XviD
Duration : 1 h 24 min
Bit rate : 1 927 kb/s
Width : 688 pixels
Height : 528 pixels
Display aspect ratio : 4:3
Frame rate : 25.000 FPS
Color space : YUV
Chroma subsampling : 4:2:0
Bit depth : 8 bits
Scan type : Progressive
Compression mode : Lossy
Bits/(Pixel*Frame) : 0.212
Stream size : 1.13 GiB (83%)
Writing library : XviD 1.2.1 (UTC 2008-12-04)
Audio #1
ID : 1
Format : AC-3
Format/Info : Audio Coding 3
Mode extension : CM (complete main)
Format settings, Endianness : Big
Codec ID : 2000
Duration : 1 h 24 min
Bit rate mode : Constant
Bit rate : 192 kb/s
Channel(s) : 2 channels
Channel positions : Front: L R
Sampling rate : 48.0 kHz
Frame rate : 31.250 FPS (1536 spf)
Bit depth : 16 bits
Compression mode : Lossy
Stream size : 116 MiB (8%)
Alignment : Split accross interleaves
Interleave, duration : 40 ms (1.00 video frame)
Interleave, preload duratio : 500 ms
Audio #2
ID : 2
Format : AC-3
Format/Info : Audio Coding 3
Mode extension : CM (complete main)
Format settings, Endianness : Big
Codec ID : 2000
Duration : 1 h 24 min
Bit rate mode : Constant
Bit rate : 192 kb/s
Channel(s) : 2 channels
Channel positions : Front: L R
Sampling rate : 48.0 kHz
Frame rate : 31.250 FPS (1536 spf)
Bit depth : 16 bits
Compression mode : Lossy
Stream size : 116 MiB (8%)
Alignment : Split accross interleaves
Interleave, duration : 40 ms (1.00 video frame)
Interleave, preload duratio : 500 ms
---В связи с заменой русс. звук дорожек на (Советский Дубляж) и пересборкой рипа.Торрент перезалил 26.10.2017 в 23:05 по МСК

If your ratio falls below 0.3, you will not be able to download Torrents! More about the rating.

[erzsebet.pl].t701.torrent
Torrent: Registered   [ 2017-12-02 17:13 ]

Download .torrent

Download

15 KB

Status: checked
Completed: 16 times
Size: 1.37 GB
terms.php

#1

02-Dec-2017 17:12

[Profile]  [PM] 
Display posts:    

You cannot post new topics in this forum
You cannot reply to topics in this forum
You cannot edit your posts in this forum
You cannot delete your posts in this forum
You cannot vote in polls in this forum
You cannot attach files in this forum
You can download files in this forum
User agreement
For copyright holders
Advertise on this site

Скачайте на халяву через торрент на трекере erzsebet.pl

!ATTENTION!
The site does not give electronic versions of products, and is engaged only in a collecting and cataloguing of the references sent and published at a forum by our readers. If you are the legal owner of any submitted material and do not wish that the reference to it was in our catalogue, contact us and we shall immediately remove her. Files for an exchange on tracker are given by users of a site, and the administration does not bear the responsibility for their maintenance. The request to not fill in the files protected by copyrights, and also files of the illegal maintenance!