У всех таланты / Všichni mají talent (Зденек Флидр / Zdeněk Flídr) [1984, Чехословакия, Детский, музыкальный, VHSRip] [Советская прокатная копия] Dub (к/с «Ленфильм»)

DL-List and Torrent activity
Size:  700 MB   |    Registered:  2 years 9 months   |    Completed:  16 times
Seeders:  5  
 
   
 
 

erzsebet.org ®

Longevity:
2 years 9 months
Posts:
47596

[Quote] 

У всех таланты / Všichni mají talent / [Советская прокатная копия]
Жанр: Детский, музыкальный
Страна: Чехословакия
Студия: Filmové studio Barrandov
Год выпуска: 1984
Продолжительность: 01:03:38.879 (95472 frames)
Перевод: Профессиональный (дублированный) – советский дубляж к/с «Ленфильм»
Субтитры: нет
Режиссер: Зденек Флидр / Zdeněk Flídr
В ролях:
Марек Гаман / Marek Haman ..... Давид, солист хора / David, zpívá sólo
Михаэла Дворжачкова / Michaela Dvořáčková ..... Рената / Renata
Олдржих Влах / Oldřich Vlach ..... отец Ренаты / Renatin otec
Здена Гадрболцова / Zdena Hadrbolcová ..... госпожа Бартошова / pani Bartošová
Иржи Шмитцер / Jiří Schmitzer ..... Юран / Juráň
Камила Магалова / Kamila Magálová ..... госпожа Юранова / pani Juráňová
Сватоплук Матиаш / Svatopluk Matyáš ..... Директор дома культуры / ředitel Kulturního domu
Нина Дивишкова / Nina Divíšková ..... Руководитель дома престарелых / vedoucí Domova důchodců
Мирослава (Мирка) Коларжова / Miroslava (Mirka) Kolářová ..... учительница, классный руководитель / třídní učitelka
Иржи Кодеш / Jiří Kodeš ..... Игорь / Igor
Соня Дворжакова / Soňa Dvořáková ..... жена Игоря / Igorova žena
Алёна Бельска-Баранова / Alena Bělská-Baranová … костюмерша / kostymérka
Марек Мичка / Marek Mička ..... Янек / Janek
Ян Вокурка / Jan Vokurka ..... Патрик / Patrik
Милан Вагнер / Milan Vágner ..... Фрнка / Frnka
Описание: В одном из небольших моравских городков при Доме культуры существовал детский фольклорный ансамбль песни и пляски. Однажды по городу разнеслась весть: детский коллектив приглашен на гастроли во Францию. Ансамбль внезапно превратился в центр интересов всех жаждущих погреть руки на бесплатной поездке за границу. А из областного центра приехала методистка-надзирательница, с двоякой целью: следить за детьми, чтобы "там" чего-то не так не сделали, а заодно пристроить в ансамбль сынка "ответственного работника"...
Дополнительная информация: Релиз:
Рип найден в сети.
Фильм дублирован на киностудии «Ленфильм» и выпущен в прокат в августе 1986 года.
Режиссёр дубляжа: Виталий Каневский
Звукооператор: Евгений Нестеров
Автор литературного перевода: Владимир Уфлянд
Редактор: Галина Чаплина
Роли дублировали: Владислав Кузнецов, Александра Яковлева, Юрий Стоянов, Гелий Сысоев, Татьяна Иванова, Ольга Волкова, Людмила Безуглая, Анастасия Никольская
IMDb = - (-) - http://www.imdb.com/title/tt3133558/
Кинопоиск = - (1) - https://www.kinopoisk.ru/film/u-vsekh-talanty-1984-790255/
ПРОСЬБА к СКАЧАВШИМ. НЕ УХОДИТЕ С РАЗДАЧИ, ПОМОГИТЕ ДРУГИМ СКАЧАТЬ!!!
Качество видео: VHSRip
Формат видео: AVI
Видео: 576x448 (1.29:1), 25 fps, XviD build 73 ~1399 kbps avg, 0.22 bit/pixel
Аудио: 44.100 kHz, MPEG Layer 3, 2 ch, ~128.00 kbps avg – советский дубляж (к/с «Ленфильм)

MediaInfo

General
Complete name : D:\torrents\У всех таланты (Чехословакия, 1984, сов.дубл.).avi
Format : AVI
Format/Info : Audio Video Interleave
File size : 700 MiB
Duration : 1 h 3 min
Overall bit rate : 1 538 kb/s
Writing library : VirtualDub build 35576/release
Video
ID : 0
Format : MPEG-4 Visual
Format profile : Advanced [email protected]
Format settings, BVOP : 2
Format settings, QPel : No
Format settings, GMC : No warppoints
Format settings, Matrix : Default (H.263)
Codec ID : XVID
Codec ID/Hint : XviD
Duration : 1 h 3 min
Bit rate : 1 400 kb/s
Width : 576 pixels
Height : 448 pixels
Display aspect ratio : 1.286
Frame rate : 25.000 FPS
Color space : YUV
Chroma subsampling : 4:2:0
Bit depth : 8 bits
Scan type : Progressive
Compression mode : Lossy
Bits/(Pixel*Frame) : 0.217
Stream size : 637 MiB (91%)
Writing library : XviD 73
Audio
ID : 1
Format : MPEG Audio
Format version : Version 1
Format profile : Layer 3
Mode : Joint stereo
Mode extension : MS Stereo
Codec ID : 55
Codec ID/Hint : MP3
Duration : 1 h 3 min
Bit rate mode : Constant
Bit rate : 128 kb/s
Channel(s) : 2 channels
Sampling rate : 44.1 kHz
Compression mode : Lossy
Delay relative to video : 4 ms
Stream size : 58.3 MiB (8%)
Alignment : Split accross interleaves
Interleave, duration : 40 ms (1.00 video frame)
Interleave, preload duration : 500 ms

Скриншот c названием фильма

МОИ РАЗДАЧИ НА РУТРЕКЕРЕ: http://erzsebet.org/forum/tracker.php?rid=27390064

If your ratio falls below 0.3, you will not be able to download Torrents! More about the rating.

[erzsebet.pl].t703.torrent
Torrent: Registered   [ 2017-12-02 17:13 ]

Download .torrent

Download

14 KB

Status: checked
Completed: 16 times
Size: 700 MB
terms.php

#1

02-Dec-2017 17:12

[Profile]  [PM] 
Display posts:    

You cannot post new topics in this forum
You cannot reply to topics in this forum
You cannot edit your posts in this forum
You cannot delete your posts in this forum
You cannot vote in polls in this forum
You cannot attach files in this forum
You can download files in this forum
User agreement
For copyright holders
Advertise on this site

Скачайте на халяву через торрент на трекере erzsebet.pl

!ATTENTION!
The site does not give electronic versions of products, and is engaged only in a collecting and cataloguing of the references sent and published at a forum by our readers. If you are the legal owner of any submitted material and do not wish that the reference to it was in our catalogue, contact us and we shall immediately remove her. Files for an exchange on tracker are given by users of a site, and the administration does not bear the responsibility for their maintenance. The request to not fill in the files protected by copyrights, and also files of the illegal maintenance!