Правдивая ложь / True Lies (Джеймс Кэмерон / James Cameron) [1994, США, боевик, VHSRip-AVC] [Promo copy] AVO (Василий Горчаков)

DL-List and Torrent activity
Size:  3.14 GB   |    Registered:  2 years 9 months   |    Completed:  16 times
Seeders:  3   Leechers:  2   Show peers in full details
 
   
 
 

erzsebet.org ®

Longevity:
2 years 9 months
Posts:
47596

[Quote] 

Правдивая ложь / True Lies / Promo copy
Страна: США
Жанр: боевик
Год выпуска: 1994
Продолжительность: 02:20:41
Перевод: Авторский (одноголосый закадровый) Василий Горчаков
Субтитры: нет
Оригинальная аудиодорожка: нет
Режиссер: Джеймс Кэмерон / James Cameron
В ролях: Арнольд Шварценеггер, Джейми Ли Кёртис, Том Арнольд, Билл Пэкстон, Тиа Каррере, Арт Малик, Элиза Душку, Грант Хеслов, Чарлтон Хестон...
Описание:
Для своей семьи Гарри Таскер — любящий муж и отец, человек скромный и рассеянный, обыкновенный продавец компьютеров, «не вылезающий» с работы ни днем, ни ночью. Но лишь немногие знают, что на самом деле Гарри — специальный агент тайной правительственной службы, специализирующийся на особо опасных заданиях, владеющий кучей языков, всеми видами оружия и всеми возможными способами «отправки» злодеев на тот свет.
Агент Таскер и дальше продолжал бы вести двойную жизнь, если бы зловещие арабские террористы не похитили Гарри, а вместе с ним и его ничего не подозревающую жену Хэлен. Но бандиты, к своему несчастью, даже не подозревали с кем связались. И Хэлен узнала, что муж ее совсем не компьютерщик, и что она пятнадцать лет прожила с человеком, рядом с которым мускулистый Рэмбо выглядит ребенком…
Награды и номинации:
Оскар, 1995 год
Номинация:
Лучшие визуальные эффекты
Золотой глобус, 1995 год
Победитель:
Лучшая женская роль (комедия или мюзикл) (Джейми Ли Кёртис)
Премия канала «MTV», 1995 год
Номинации:
Лучшая женская роль (Джейми Ли Кёртис)
Лучшая комедийная роль (Том Арнольд)
Лучший танец (Тиа Каррере, Арнольд Шварценеггер)
Лучшая экшн-сцена
Лучший поцелуй (Джейми Ли Кёртис, Арнольд Шварценеггер)
Британская академия, 1995 год
Номинация:
Лучшие визуальные эффекты
Сатурн, 1995 год
Победитель:
Лучший режиссер (Джеймс Кэмерон)
Лучшая актриса (Джейми Ли Кёртис)
Лучшие спецэффекты
Номинации:
Лучший актер (Арнольд Шварценеггер)
Лучший актер второго плана (Билл Пэкстон)
Лучшая актриса второго плана (Тиа Каррере)
Лучший приключенческий фильм, боевик или триллер
Премия Гильдии актеров, 1995 год
Номинация:
Лучшая женская роль второго плана (Джейми Ли Кёртис)
Доп. информация:
Оцифровка пиратской VHS из собственной коллекции.
Promo copy!
Сэмпл: http://sendfile.su/1377065
Качество видео: VHSRip-AVC
Формат видео: MP4
Видео: AVC, 720х576, 5:4, 25,000 кадров/сек, 3000 Кбит/сек
Аудио: AAC, 64,0 КГц, 192 Кбит/сек, 2.0 (псевдостерео)

MediaInfo

General
Complete name : K:\torrents\True Lies\True Lies.mp4
Format : MPEG-4
Format profile : Base Media
Codec ID : isom (isom/iso2/avc1/mp41)
File size : 3.14 GiB
Duration : 2 h 20 min
Overall bit rate : 3 195 kb/s
Writing application : Lavf57.25.100
Video
ID : 1
Format : AVC
Format/Info : Advanced Video Codec
Format profile : [email protected]
Format settings : 1 Ref Frames
Format settings, CABAC : No
Format settings, RefFrames : 1 frame
Format settings, GOP : M=1, N=50
Codec ID : avc1
Codec ID/Info : Advanced Video Coding
Duration : 2 h 20 min
Bit rate : 2 999 kb/s
Width : 720 pixels
Height : 576 pixels
Display aspect ratio : 5:4
Frame rate mode : Constant
Frame rate : 25.000 FPS
Standard : PAL
Color space : YUV
Chroma subsampling : 4:2:0
Bit depth : 8 bits
Scan type : Progressive
Bits/(Pixel*Frame) : 0.289
Stream size : 2.95 GiB (94%)
Audio
ID : 2
Format : AAC
Format/Info : Advanced Audio Codec
Format profile : LTP
Codec ID : mp4a-40-4
Duration : 2 h 20 min
Bit rate mode : Constant
Bit rate : 192 kb/s
Channel(s) : 2 channels
Channel(s)_Original : 3 channels
Channel positions : Front: L C R
Sampling rate : 64.0 kHz
Frame rate : 62.500 FPS (1024 SPF)
Compression mode : Lossy
Stream size : 191 MiB (6%)
Default : Yes
Alternate group : 1

Скриншот c названием фильма

If your ratio falls below 0.3, you will not be able to download Torrents! More about the rating.

[erzsebet.pl].t704.torrent
Torrent: Registered   [ 2017-12-02 17:17 ]

Download .torrent

Download

16 KB

Status: checked
Completed: 16 times
Size: 3.14 GB
terms.php

#1

02-Dec-2017 17:17

[Profile]  [PM] 
Display posts:    

You cannot post new topics in this forum
You cannot reply to topics in this forum
You cannot edit your posts in this forum
You cannot delete your posts in this forum
You cannot vote in polls in this forum
You cannot attach files in this forum
You can download files in this forum
User agreement
For copyright holders
Advertise on this site

Скачайте на халяву через торрент на трекере erzsebet.pl

!ATTENTION!
The site does not give electronic versions of products, and is engaged only in a collecting and cataloguing of the references sent and published at a forum by our readers. If you are the legal owner of any submitted material and do not wish that the reference to it was in our catalogue, contact us and we shall immediately remove her. Files for an exchange on tracker are given by users of a site, and the administration does not bear the responsibility for their maintenance. The request to not fill in the files protected by copyrights, and also files of the illegal maintenance!