Локис (Рукопись профессора Виттенбаха) / Lokis. Rękopis profesora Wittembacha (Януш Маевский / Janusz Majewski) [1970, Польша, ужасы, фэнтези, DVB] [Советская прокатная копия] Dub (Мосфильм)

DL-List and Torrent activity
Size:  2.85 GB   |    Registered:  2 years 9 months   |    Completed:  16 times
Seeders:  3  
 
   
 
 

erzsebet.org ®

Longevity:
2 years 9 months
Posts:
47596

[Quote] 

Локис (Рукопись профессора Виттенбаха) / Lokis. Rękopis profesora Wittembacha [Советская прокатная копия]- Страна: Польша
Жанр: ужасы, фэнтези
Год выпуска: 1970
Продолжительность: 01:30:07-Перевод: Профессиональный (дублированный) - Киностудия "Мосфильм"
Субтитры: нет-Режиссер: Януш Маевский / Janusz Majewski
В ролях: Эдмунд Феттинг, Юзеф Дуряш, Густав Люткевич, Малгожата Браунек, Зофия Мрозовская, Ханна Станкувна, Тадеуш Ордейг, Веслава Квасьневская, Владислав Девойно, Витольд Хольц, Анджей Хрыдзевич, Анна Ярачувна, Анджей Красицкий, Ядвига Курылюк, Веслава Мазуркевич, Станислав Мильский, Рышард Петруский, Данута Водыньская, Павел Унруг, Витольд Зарыхта, Ирена Хорецкая, Анджей Рауш, Юзеф Росиньский...- | Релиз: -Описание: ...Лингвист и этнограф Виттенбах, путешествуя по Литве в поисках материалов для своего исследования, остановился в имении графа Михала Шемета. Доктор Фребер, лечивший душевнобольную мать графа, рассказал профессору печальную историю семьи Шемет. Лет тридцать назад во время охоты на графиню напал медведь. Её удалось спасти, но рассудок у неё помутился, хотя в положенное время она родила, казалось бы, вполне здорового мальчика. Но теперь молодой граф сам находится на грани помешательства. Однажды профессору пришлось стать свидетелем драмы, разыгравшейся в предместье: Михал исчез в свадебную ночь, его молодая жена Юлька была обнаружена в луже крови, а под окнами отчётливо запечатлелись на снегу следы медведя... Когда профессор и доктор покидали замок, Фребер признался, что, презирая людей, он делал всё, чтобы у графа развилось безумие.-Семпл: http://sendfile.su/1372357-Тип релиза: DVB
Контейнер: MPG
Видео: 704x576 (4:3) @ 768x576, 25.000 fps, MPEG-2 Video, ~4241 Kbps, 0.418 bits/pixel
Аудио: Русский, 48.0 KHz, MPEG-1 Audio layer 2, 2 ch, 192 Kbps

MediaInfo

General
Complete name : Локис 1970 Киносоюз Dub Мосфильм.mpg
Format : MPEG-PS
File size : 2.85 GiB
Duration : 1 h 30 min
Overall bit rate mode : Variable
Overall bit rate : 4 523 kb/s
Video
ID : 224 (0xE0)
Format : MPEG Video
Format version : Version 2
Format profile : [email protected]
Format settings : CustomMatrix / BVOP
Format settings, BVOP : Yes
Format settings, Matrix : Custom
Format settings, GOP : M=3, N=24
Format settings, picture structure : Frame
Duration : 1 h 30 min
Bit rate mode : Variable
Bit rate : 4 241 kb/s
Maximum bit rate : 15.0 Mb/s
Width : 704 pixels
Height : 576 pixels
Display aspect ratio : 4:3
Frame rate : 25.000 FPS
Standard : PAL
Color space : YUV
Chroma subsampling : 4:2:0
Bit depth : 8 bits
Scan type : Interlaced
Scan order : Top Field First
Compression mode : Lossy
Bits/(Pixel*Frame) : 0.418
Time code of first frame : 00:00:00:00
Time code source : Group of pictures header
GOP, Open/Closed : Open
GOP, Open/Closed of first frame : Closed
Stream size : 2.67 GiB (94%)
Audio
ID : 192 (0xC0)
Format : MPEG Audio
Format version : Version 1
Format profile : Layer 2
Duration : 1 h 30 min
Bit rate mode : Constant
Bit rate : 192 kb/s
Channel(s) : 2 channels
Sampling rate : 48.0 kHz
Compression mode : Lossy
Stream size : 124 MiB (4%)

Описание из "Аннотированного каталога фильмов действующего фонда", 1980г.

If your ratio falls below 0.3, you will not be able to download Torrents! More about the rating.

[erzsebet.pl].t705.torrent
Torrent: Registered   [ 2017-12-02 17:13 ]

Download .torrent

Download

15 KB

Status: checked
Completed: 16 times
Size: 2.85 GB
terms.php

#1

02-Dec-2017 17:12

[Profile]  [PM] 
Display posts:    

You cannot post new topics in this forum
You cannot reply to topics in this forum
You cannot edit your posts in this forum
You cannot delete your posts in this forum
You cannot vote in polls in this forum
You cannot attach files in this forum
You can download files in this forum
User agreement
For copyright holders
Advertise on this site

Скачайте на халяву через торрент на трекере erzsebet.pl

!ATTENTION!
The site does not give electronic versions of products, and is engaged only in a collecting and cataloguing of the references sent and published at a forum by our readers. If you are the legal owner of any submitted material and do not wish that the reference to it was in our catalogue, contact us and we shall immediately remove her. Files for an exchange on tracker are given by users of a site, and the administration does not bear the responsibility for their maintenance. The request to not fill in the files protected by copyrights, and also files of the illegal maintenance!