Разбойник и принцесса / Лотрандо и Зобеида / Lotrando a Zubejda / Ruffiano and Sweeteeth (Карел Смычек / Karel Smyczek) [1997, Чехия, Болгария, Франция, сказка, приключения, семейный, HDTVRip-AVC] Dub + Original Cze

DL-List and Torrent activity
Size:  2.19 GB   |    Registered:  2 years 9 months   |    Completed:  16 times
Seeders:  8  
 
   
 
 

erzsebet.org ®

Longevity:
2 years 9 months
Posts:
47596

[Quote] 

Разбойник и принцесса / Лотрандо и Зобеида / Lotrando a Zubejda / Ruffiano and Sweeteeth
Страна: Чехия, Болгария, Франция
Жанр: сказка, приключения, семейный
Год выпуска: 1997
Продолжительность: 01:39:03
Перевод: Профессиональный (дублированный)
Субтитры: нет
Оригинальная аудиодорожка: чешский
Режиссер: Карел Смычек / Karel Smyczek
В ролях: Иржи Страх, Барбара Сеидлова, Павел Зедничек, Арност Голдфлам, Мариан Лабуда, Иржи Пеха, Иржи Лабус, Мирослав Таборски, Ладислав Герендаш, Ярослав Сыпаль
Описание: Знаменитый разбойник Лотрандо решает выучить сына хорошим манерам и наукам, воспитав его в хорошем католическом пансионе. Старший Лотрандо хочет сделать важным господином младшего Лотрандо, но попадает в переделку. Шайку приходится возглавить молодому Лотрандо... Но ничего у него не получается - слишком воспитанным и вежливым он стал.
А тут в Сулейманском султанстве заболела дочь государя. Доктора не могут помочь принцессе Зубейду. Горе - разбойник Лотрандо и его приятель-дровосек случайно попадают в эту страну. Нерадивые слуги султана приняли их за докторов. Удастся ли самозваным докторам излечить девушку?

Сэмпл: https://yadi.sk/i/2hCgP0QF3PZaN6
Качество видео: HDTVRip-AVC
Формат видео: MKV
Видео: AVC, 1024x624, 16:10, 2779 kbps, 25.000 fps
Аудио 1: RUS, AC3, 2.0, 48 kHz, 192 kbps
Аудио 2: CZE, AC3, 2.0, 48 kHz, 192 kbps

MediaInfo

General
Unique ID : 186948145658498739259158621376161285980 (0x8CA4E7369DE9A0E28922BA66DFEC875C)
Complete name : D:\My Video\Разбойник и принцесса [1997].mkv
Format : Matroska
Format version : Version 4 / Version 2
File size : 2.19 GiB
Duration : 1 h 39 min
Overall bit rate : 3 165 kb/s
Encoded date : UTC 2017-05-26 00:30:19
Writing application : mkvmerge v8.3.0 ('Over the Horizon') 32bit
Writing library : libebml v1.3.1 + libmatroska v1.4.2
Video
ID : 1
Format : AVC
Format/Info : Advanced Video Codec
Format profile : [email protected]
Format settings, CABAC : Yes
Format settings, ReFrames : 13 frames
Codec ID : V_MPEG4/ISO/AVC
Duration : 1 h 39 min
Bit rate : 2 779 kb/s
Width : 1 024 pixels
Height : 624 pixels
Display aspect ratio : 16:10
Frame rate mode : Constant
Frame rate : 25.000 FPS
Color space : YUV
Chroma subsampling : 4:2:0
Bit depth : 8 bits
Scan type : Progressive
Bits/(Pixel*Frame) : 0.174
Stream size : 1.92 GiB (88%)
Writing library : x264 core 148 r2694bm 3b70645
Encoding settings : cabac=1 / ref=13 / deblock=1:-2:-2 / analyse=0x3:0x133 / me=umh / subme=10 / psy=1 / psy_rd=1.00:0.25 / mixed_ref=1 / me_range=24 / chroma_me=1 / trellis=2 / 8x8dct=1 / cqm=0 / deadzone=6,6 / fast_pskip=1 / chroma_qp_offset=-4 / threads=12 / lookahead_threads=2 / sliced_threads=0 / nr=0 / decimate=0 / interlaced=0 / bluray_compat=0 / constrained_intra=0 / bframes=8 / b_pyramid=2 / b_adapt=2 / b_bias=0 / direct=3 / weightb=1 / open_gop=0 / weightp=2 / keyint=250 / keyint_min=25 / scenecut=40 / intra_refresh=0 / rc_lookahead=60 / rc=2pass / mbtree=1 / bitrate=2779 / ratetol=1.0 / qcomp=0.80 / qpmin=0 / qpmax=69 / qpstep=4 / cplxblur=20.0 / qblur=0.5 / ip_ratio=1.10 / aq=1:0.50
Language : Czech
Default : Yes
Forced : No
Audio #1
ID : 2
Format : AC-3
Format/Info : Audio Coding 3
Format settings, Endianness : Big
Codec ID : A_AC3
Duration : 1 h 39 min
Bit rate mode : Constant
Bit rate : 192 kb/s
Channel(s) : 2 channels
Channel positions : Front: L R
Sampling rate : 48.0 kHz
Frame rate : 31.250 FPS (1536 spf)
Bit depth : 16 bits
Compression mode : Lossy
Stream size : 136 MiB (6%)
Title : DUB
Language : Russian
Service kind : Complete Main
Default : Yes
Forced : No
Audio #2
ID : 3
Format : AC-3
Format/Info : Audio Coding 3
Format settings, Endianness : Big
Codec ID : A_AC3
Duration : 1 h 39 min
Bit rate mode : Constant
Bit rate : 192 kb/s
Channel(s) : 2 channels
Channel positions : Front: L R
Sampling rate : 48.0 kHz
Frame rate : 31.250 FPS (1536 spf)
Bit depth : 16 bits
Compression mode : Lossy
Stream size : 136 MiB (6%)
Title : CZE
Language : Czech
Service kind : Complete Main
Default : No
Forced : No

If your ratio falls below 0.3, you will not be able to download Torrents! More about the rating.

[erzsebet.pl].t717.torrent
Torrent: Registered   [ 2017-12-02 17:17 ]

Download .torrent

Download

12 KB

Status: checked
Completed: 16 times
Size: 2.19 GB
terms.php

#1

02-Dec-2017 17:16

[Profile]  [PM] 
Display posts:    

You cannot post new topics in this forum
You cannot reply to topics in this forum
You cannot edit your posts in this forum
You cannot delete your posts in this forum
You cannot vote in polls in this forum
You cannot attach files in this forum
You can download files in this forum
User agreement
For copyright holders
Advertise on this site

Скачайте на халяву через торрент на трекере erzsebet.pl

!ATTENTION!
The site does not give electronic versions of products, and is engaged only in a collecting and cataloguing of the references sent and published at a forum by our readers. If you are the legal owner of any submitted material and do not wish that the reference to it was in our catalogue, contact us and we shall immediately remove her. Files for an exchange on tracker are given by users of a site, and the administration does not bear the responsibility for their maintenance. The request to not fill in the files protected by copyrights, and also files of the illegal maintenance!