Харчевня в Шпессарте / Das Wirtshaus im Spessart / The Spessart Inn (Курт Хоффман / Kurt Hoffmann) [1958, ФРГ, Комедия, DVDRip] MVO (ТВ 5) + VO (Культура) + Original Ger

DL-List and Torrent activity
Size:  1.37 GB   |    Registered:  2 years 9 months   |    Completed:  16 times
Seeders:  1  
 
   
 
 

erzsebet.org ®

Longevity:
2 years 9 months
Posts:
47596

[Quote] 

Харчевня в Шпессарте / Das Wirtshaus im Spessart / The Spessart Inn
Страна: ФРГ
Жанр: Комедия
Год выпуска: 1958
Продолжительность: 01:35:55
Перевод 1: Профессиональный (многоголосый закадровый) ТВ 5
Перевод 2: Студийный (одноголосый закадровый) Культура
Субтитры: нет
Оригинальная аудиодорожка: Немецкий
Режиссер: Курт Хоффман / Kurt Hoffmann
В ролях: Лизлотт Пюльве / Liselotte Pulver, Карлос Томпсон / Carlos Thompson, Рудольф Фогель / Rudolf Vogel
Описание: Первый фильм трилогии пародийных комедий. Графиня Франциска с женихом едут в свой родовой замок Зандау. На ночь им приходится остановиться в харчевне в глухом месте Шпессарт. Ночью в харчевню врываются бандиты, чтобы похитить графиню и получить за нее выкуп...
Доп. информация: Rip С моего DVD http://erzsebet.org/forum/viewtopic.php?t=5483257 по сравнению с рипом на трекере качество лучше + 3 звук дорожки включая оригинальную. Смотрим сравнение.
Сравнение http://erzsebet.org/forum/viewtopic.php?t=839051 - http://screenshotcomparison.com/comparison/124408
PS. Это первый фильм трилогии.
DVD Харчевня в Шпессарте / Das Wirtshaus im Spessart Можно взять здесь - http://erzsebet.org/forum/viewtopic.php?t=5483257
DVD Привидения в замке Шпессарт / Das Spukschloß im Spessart Можно взять здесь - http://erzsebet.org/forum/viewtopic.php?t=5481512
DVD Rip Привидения в замке Шпессарт / Das Spukschloß - http://erzsebet.org/forum/viewtopic.php?t=5481471
Сэмпл: http://multi-up.com/1177228
Качество видео: DVDRip
Формат видео: AVI
Видео: XviD 704х432, 25.000 fps, 1 422 Kbps
Аудио 1: Русский (AC3 192 kbps 2 ch 48.0 KHz)
Аудио 2: Русский (AC3 192 kbps 2 ch 48.0 KHz)
Аудио 3: Немецкий (AC3 224 kbps 2 ch 48.0 KHz)

MediaInfo

General
Complete name : C:\Documents and Settings\Admin\Мои документы\Downloads\Das Wirtshaus im Spessart 1958.avi
Format : AVI
Format/Info : Audio Video Interleave
File size : 1.37 GiB
Duration : 1h 35mn
Overall bit rate : 2 041 Kbps
Writing application : VirtualDubMod 1.5.4.1 (build 2178/release)
Writing library : VirtualDubMod build 2178/release
Video
ID : 0
Format : MPEG-4 Visual
Format profile : Advanced [email protected]
Format settings, BVOP : 1
Format settings, QPel : No
Format settings, GMC : No warppoints
Format settings, Matrix : Custom
Codec ID : XVID
Codec ID/Hint : XviD
Duration : 1h 35mn
Bit rate : 1 422 Kbps
Width : 704 pixels
Height : 432 pixels
Display aspect ratio : 16:10
Frame rate : 25.000 fps
Color space : YUV
Chroma subsampling : 4:2:0
Bit depth : 8 bits
Scan type : Progressive
Compression mode : Lossy
Bits/(Pixel*Frame) : 0.187
Stream size : 975 MiB (70%)
Writing library : XviD 1.2.1 (UTC 2008-12-04)
Audio #1
ID : 1
Format : AC-3
Format/Info : Audio Coding 3
Mode extension : CM (complete main)
Format settings, Endianness : Big
Codec ID : 2000
Duration : 1h 35mn
Bit rate mode : Constant
Bit rate : 192 Kbps
Channel(s) : 2 channels
Channel positions : Front: L R
Sampling rate : 48.0 KHz
Bit depth : 16 bits
Compression mode : Lossy
Stream size : 132 MiB (9%)
Alignment : Split accross interleaves
Interleave, duration : 96 ms (2.40 video frames)
Interleave, preload duration : 96 ms
Language : Russian
Audio #2
ID : 2
Format : AC-3
Format/Info : Audio Coding 3
Mode extension : CM (complete main)
Format settings, Endianness : Big
Codec ID : 2000
Duration : 1h 35mn
Bit rate mode : Constant
Bit rate : 192 Kbps
Channel(s) : 2 channels
Channel positions : Front: L R
Sampling rate : 48.0 KHz
Bit depth : 16 bits
Compression mode : Lossy
Stream size : 132 MiB (9%)
Alignment : Split accross interleaves
Interleave, duration : 96 ms (2.40 video frames)
Interleave, preload duration : 96 ms
Language : Russian
Audio #3
ID : 3
Format : AC-3
Format/Info : Audio Coding 3
Mode extension : CM (complete main)
Format settings, Endianness : Big
Codec ID : 2000
Duration : 1h 35mn
Bit rate mode : Constant
Bit rate : 224 Kbps
Channel(s) : 2 channels
Channel positions : Front: L R
Sampling rate : 48.0 KHz
Bit depth : 16 bits
Compression mode : Lossy
Stream size : 154 MiB (11%)
Alignment : Split accross interleaves
Interleave, duration : 96 ms (2.40 video frames)
Interleave, preload duration : 96 ms
Language : Deutsch

Скриншот c названием фильма

Скриншоты

If your ratio falls below 0.3, you will not be able to download Torrents! More about the rating.

[erzsebet.pl].t72.torrent
Torrent: Registered   [ 2017-12-02 15:58 ]

Download .torrent

Download

14 KB

Status: checked
Completed: 16 times
Size: 1.37 GB
terms.php

#1

02-Dec-2017 15:57

[Profile]  [PM] 
Display posts:    

You cannot post new topics in this forum
You cannot reply to topics in this forum
You cannot edit your posts in this forum
You cannot delete your posts in this forum
You cannot vote in polls in this forum
You cannot attach files in this forum
You can download files in this forum
User agreement
For copyright holders
Advertise on this site

Скачайте на халяву через торрент на трекере erzsebet.pl

!ATTENTION!
The site does not give electronic versions of products, and is engaged only in a collecting and cataloguing of the references sent and published at a forum by our readers. If you are the legal owner of any submitted material and do not wish that the reference to it was in our catalogue, contact us and we shall immediately remove her. Files for an exchange on tracker are given by users of a site, and the administration does not bear the responsibility for their maintenance. The request to not fill in the files protected by copyrights, and also files of the illegal maintenance!