Главное событие / Событие сезона / The Main Event (Ховард Зифф / Howard Zieff) [1979, США, Спортивная комедия, DVDRip] AVO (Алексей Михалев) + Original Eng

DL-List and Torrent activity
Size:  1.47 GB   |    Registered:  2 years 9 months   |    Completed:  16 times
Seeders:  3  
 
   
 
 

erzsebet.org ®

Longevity:
2 years 9 months
Posts:
47596

[Quote] 

Главное событие / Событие сезона / The Main Event
«A Glove Story»
Страна: США
Жанр: Спортивная комедия
Год выпуска: 1979
Продолжительность: 01:49:15
Перевод: Авторский (одноголосый закадровый) Алексей Михалев
Субтитры: нет
Оригинальная аудиодорожка: английский
Режиссер: Ховард Зифф / Howard Zieff
В ролях: Барбра Стрейзанд, Райан О’Нил, Пол Сэнд, Уитман Майо, Патти Д’Арбанвиль, Чу Чу Малаве, Ричард Лосон, Джеймс Грегори, Ричард Олтмэн, Сет Бэнкс
Описание: Хиллари Крамер, успешная производительница парфюмерии, разорена. Её управляющий сбежал в Южную Америку со всеми её деньгами и не оставил даже номера телефона. Долги Хиллари превышают её активы даже после продажи фирмы. На руках у неё остаётся гора неоплаченных векселей и контракт с неким Симпатягой Кидом, боксёром, — одна из налоговых уловок сбежавшего менеджера.
Обнаружив, что является владельцем человека, Хиллари находит Симпатягу. Она даже не знала, что Кид несколько лет получал от неё по 250 долларов в неделю, и притом не выполнял свою сторону обязательств — не проводил плановых боёв. Прошло уже четыре года с момента «матча, которого не было», когда Кид сцепился со своим противником до начала поединка в раздевалке и был дисквалифицирован. И с этого времени боксёр-неудачник не возвращался на ринг, а на средства, регулярно получаемые от Хиллари открыл частную автошколу на окраине с офисом, выстроенном в виде боксёрской перчатки.
Кид должен Хиллари деньги, на его имущество, включая автошколу, наложен арест, но даже оно не может покрыть долги бывшей парфюмерши. И тогда Хиллари решается на отчаянный шаг — вернуть Кида на ринг, а сама становится его менеджером.
Доп. информация: Дорожка с А. Михалевым синхронизирована и наложена ale_x2008 при помощи Adobe Audition, Sony Vegas и VirtualDubMod. Восстановлен правильный тон переводчика,
За оцифрованную с VHS дорожку благодарим - Raptorio Rio
Релиз
Сэмпл: https://yadi.sk/i/iCwnlMYY3P6KBs
Качество видео: DVDRip
Формат видео: AVI
Видео: XviD build 73, 720x400 (1.80:1), 25 fps, 1528 kbps avg, 0.21 bit/pixel
Аудио: AC3 Dolby Digital, 48000Hz 2/0 (L,R) ch (mono), 192.00 kbps avg
Аудио 2: AC3 Dolby Digital, 48000Hz 2/0 (L,R) ch, 192.00 kbps avg

MediaInfo

Главное событие - The Main Event [by ale_x2008].avi
Format : AVI
Format/Info : Audio Video Interleave
File size : 1.47 GiB
Duration : 1 h 49 min
Overall bit rate : 1 927 kb/s
Movie name : Главное событие - The Main Event [by ale_x2008]
Director : by ale_x2008
Writing application : VirtualDubMod 1.5.10.2 (build 2540/release)
Copyright : Edich2
Comment : erzsebet.org
Video
ID : 0
Format : MPEG-4 Visual
Format profile : Advanced [email protected]
Format settings, BVOP : 2
Format settings, QPel : No
Format settings, GMC : No warppoints
Format settings, Matrix : Custom
Codec ID : XVID
Codec ID/Hint : XviD
Duration : 1 h 49 min
Bit rate : 1 529 kb/s
Width : 720 pixels
Height : 400 pixels
Display aspect ratio : 16:9
Frame rate : 25.000 FPS
Color space : YUV
Chroma subsampling : 4:2:0
Bit depth : 8 bits
Scan type : Progressive
Compression mode : Lossy
Bits/(Pixel*Frame) : 0.212
Stream size : 1.17 GiB (79%)
Writing library : XviD 73
Audio #1
ID : 1
Format : AC-3
Format/Info : Audio Coding 3
Format settings, Endianness : Big
Codec ID : 2000
Duration : 1 h 49 min
Bit rate mode : Constant
Bit rate : 192 kb/s
Channel(s) : 2 channels
Channel positions : Front: L R
Sampling rate : 48.0 kHz
Frame rate : 31.250 FPS (1536 spf)
Bit depth : 16 bits
Compression mode : Lossy
Stream size : 150 MiB (10%)
Alignment : Split accross interleaves
Interleave, duration : 40 ms (1.00 video frame)
Interleave, preload duratio : 500 ms
Service kind : Complete Main
Audio #2
ID : 2
Format : AC-3
Format/Info : Audio Coding 3
Format settings, Endianness : Big
Codec ID : 2000
Duration : 1 h 49 min
Bit rate mode : Constant
Bit rate : 192 kb/s
Channel(s) : 2 channels
Channel positions : Front: L R
Sampling rate : 48.0 kHz
Frame rate : 31.250 FPS (1536 spf)
Bit depth : 16 bits
Compression mode : Lossy
Stream size : 150 MiB (10%)
Alignment : Split accross interleaves
Interleave, duration : 40 ms (1.00 video frame)
Interleave, preload duratio : 500 ms
Service kind : Complete Main

Скриншоты


If your ratio falls below 0.3, you will not be able to download Torrents! More about the rating.

[erzsebet.pl].t720.torrent
Torrent: Registered   [ 2017-12-02 17:13 ]

Download .torrent

Download

15 KB

Status: checked
Completed: 16 times
Size: 1.47 GB
terms.php

#1

02-Dec-2017 17:12

[Profile]  [PM] 
Display posts:    

You cannot post new topics in this forum
You cannot reply to topics in this forum
You cannot edit your posts in this forum
You cannot delete your posts in this forum
You cannot vote in polls in this forum
You cannot attach files in this forum
You can download files in this forum
User agreement
For copyright holders
Advertise on this site

Скачайте на халяву через торрент на трекере erzsebet.pl

!ATTENTION!
The site does not give electronic versions of products, and is engaged only in a collecting and cataloguing of the references sent and published at a forum by our readers. If you are the legal owner of any submitted material and do not wish that the reference to it was in our catalogue, contact us and we shall immediately remove her. Files for an exchange on tracker are given by users of a site, and the administration does not bear the responsibility for their maintenance. The request to not fill in the files protected by copyrights, and also files of the illegal maintenance!